[4K电影] 小恶魔 [简繁中字] / Little Evil (2017) 4K高清版本下载

[复制链接]

主题

帖子

0

积分

超级版主

Rank: 8Rank: 8

积分
0
 楼主| 发表于 2023-1-2 20:59:18 | 显示全部楼层 |阅读模式
本帖最后由 最爱4K哟 于 2023-1-2 22:06 编辑

QQ图片20230102220431_副本.png

◎译  名 小恶魔
◎片  名 Little Evil
◎年  代 2017
◎产  地 美国
◎类  别 喜剧 / 恐怖
◎语  言 英语
◎上映日期 2017-09-01(美国)
◎IMDb评分 5.7/10 from 21928 users 更新 : 2023-01-02
◎IMDb链接 https://www.imdb.com/title/tt2937366
◎豆瓣评分 5.5/10 from 1010 users 更新 : 2023-01-02
◎豆瓣链接 https://movie.douban.com/subject/26941837/
◎片  长 95分钟
◎导  演 艾利·克雷格 Eli Craig
◎编  剧 艾利·克雷格 Eli Craig
◎主  演 伊万杰琳·莉莉 Evangeline Lilly
       亚当·斯科特 Adam Scott
       莎莉·菲尔德 Sally Field
       克兰西·布朗 Clancy Brown
       凯尔·柏海莫 Kyle Bornheimer
       卡拉·盖洛 Carla Gallo
       泰勒·莱伯恩 Tyler Labine
       唐纳德·法森 Donald Faison
       布里奇特·埃弗里特 Bridget Everett
       克里斯·德埃利亚 Chris D'Elia
       欧文·阿特拉斯 Owen Atlas
       汉克·哈里斯 Hank Harris
       萨莎·威廉斯 Sasha Craig
       克里斯托弗·米勒 Christopher Mele
       布拉德·威廉姆斯 Brad Williams


◎简  介  


  故事讲述盖瑞(斯科特饰)和一个有六岁儿子的女人(莉莉饰)结婚,顺利成为孩子继父的他却发现继子拥有撒旦魔鬼的品行,他的麻烦也随之而来。
Video
ID : 1
Format : HEVC
Format/Info : High Efficiency Video Coding
Format profile : Main 10@L5@Main
Codec ID : V_MPEGH/ISO/HEVC
Duration : 1 h 34 min
Bit rate : 11.5 Mb/s
Width : 3 840 pixels
Height : 2 160 pixels
Display aspect ratio : 16:9
Frame rate mode : Constant
Frame rate : 23.976 (24000/1001) FPS
Color space : YUV
Chroma subsampling : 4:2:0
Bit depth : 10 bits
Bits/(Pixel*Frame) : 0.058
Stream size : 7.62 GiB (95%)
Default : Yes
Forced : No
Color range : Limited
Color primaries : BT.709
Transfer characteristics : BT.709
Matrix coefficients : BT.709

Audio
ID : 2
Format : E-AC-3
Format/Info : Enhanced AC-3
Commercial name : Dolby Digital Plus
Codec ID : A_EAC3
Duration : 1 h 34 min
Bit rate mode : Constant
Bit rate : 640 kb/s
Channel(s) : 6 channels
Channel layout : L R C LFE Ls Rs
Sampling rate : 48.0 kHz
Frame rate : 31.250 FPS (1536 SPF)
Compression mode : Lossy
Stream size : 434 MiB (5%)
Language : English
Service kind : Complete Main
Default : Yes
Forced : No

Text #1
ID : 3
Format : UTF-8
Codec ID : S_TEXT/UTF8
Codec ID/Info : UTF-8 Plain Text
Duration : 1 h 29 min
Bit rate : 83 b/s
Frame rate : 0.281 FPS
Count of elements : 1509
Stream size : 54.5 KiB (0%)
Language : English
Default : No
Forced : No

Text #2
ID : 4
Format : UTF-8
Codec ID : S_TEXT/UTF8
Codec ID/Info : UTF-8 Plain Text
Duration : 1 h 30 min
Bit rate : 87 b/s
Frame rate : 0.305 FPS
Count of elements : 1656
Stream size : 58.1 KiB (0%)
Title : SDH
Language : English
Default : No
Forced : No

Text #3
ID : 5
Format : UTF-8
Codec ID : S_TEXT/UTF8
Codec ID/Info : UTF-8 Plain Text
Duration : 1 h 28 min
Bit rate : 116 b/s
Frame rate : 0.275 FPS
Count of elements : 1460
Stream size : 75.2 KiB (0%)
Language : Arabic
Default : No
Forced : No

Text #4
ID : 6
Format : UTF-8
Codec ID : S_TEXT/UTF8
Codec ID/Info : UTF-8 Plain Text
Duration : 1 h 28 min
Bit rate : 66 b/s
Frame rate : 0.243 FPS
Count of elements : 1288
Stream size : 43.3 KiB (0%)
Language : Danish
Default : No
Forced : No

Text #5
ID : 7
Format : UTF-8
Codec ID : S_TEXT/UTF8
Codec ID/Info : UTF-8 Plain Text
Duration : 1 h 28 min
Bit rate : 78 b/s
Frame rate : 0.267 FPS
Count of elements : 1416
Stream size : 51.1 KiB (0%)
Language : German
Default : No
Forced : No

Text #6
ID : 8
Format : UTF-8
Codec ID : S_TEXT/UTF8
Codec ID/Info : UTF-8 Plain Text
Duration : 1 h 28 min
Bit rate : 125 b/s
Frame rate : 0.266 FPS
Count of elements : 1412
Stream size : 81.8 KiB (0%)
Language : Greek
Default : No
Forced : No

Text #7
ID : 9
Format : UTF-8
Codec ID : S_TEXT/UTF8
Codec ID/Info : UTF-8 Plain Text
Duration : 1 h 28 min
Bit rate : 70 b/s
Frame rate : 0.273 FPS
Count of elements : 1449
Stream size : 46.0 KiB (0%)
Title : Latin American
Language : Spanish (Latin America)
Default : No
Forced : No

Text #8
ID : 10
Format : UTF-8
Codec ID : S_TEXT/UTF8
Codec ID/Info : UTF-8 Plain Text
Duration : 1 h 28 min
Bit rate : 73 b/s
Frame rate : 0.274 FPS
Count of elements : 1457
Stream size : 47.5 KiB (0%)
Title : European
Language : Spanish (ES)
Default : No
Forced : No

Text #9
ID : 11
Format : UTF-8
Codec ID : S_TEXT/UTF8
Codec ID/Info : UTF-8 Plain Text
Duration : 1 h 28 min
Bit rate : 64 b/s
Frame rate : 0.234 FPS
Count of elements : 1243
Stream size : 42.0 KiB (0%)
Language : Finnish
Default : No
Forced : No

Text #10
ID : 12
Format : UTF-8
Codec ID : S_TEXT/UTF8
Codec ID/Info : UTF-8 Plain Text
Duration : 1 h 28 min
Bit rate : 69 b/s
Frame rate : 0.266 FPS
Count of elements : 1412
Stream size : 44.7 KiB (0%)
Language : French
Default : No
Forced : No

Text #11
ID : 13
Format : UTF-8
Codec ID : S_TEXT/UTF8
Codec ID/Info : UTF-8 Plain Text
Duration : 1 h 28 min
Bit rate : 119 b/s
Frame rate : 0.268 FPS
Count of elements : 1425
Stream size : 77.4 KiB (0%)
Language : Hebrew
Default : No
Forced : No

Text #12
ID : 14
Format : UTF-8
Codec ID : S_TEXT/UTF8
Codec ID/Info : UTF-8 Plain Text
Duration : 1 h 28 min
Bit rate : 72 b/s
Frame rate : 0.267 FPS
Count of elements : 1416
Stream size : 46.7 KiB (0%)
Language : Italian
Default : No
Forced : No

Text #13
ID : 15
Format : UTF-8
Codec ID : S_TEXT/UTF8
Codec ID/Info : UTF-8 Plain Text
Duration : 1 h 33 min
Bit rate : 59 b/s
Frame rate : 0.263 FPS
Count of elements : 1480
Stream size : 40.8 KiB (0%)
Language : Japanese
Default : No
Forced : No

Text #14
ID : 16
Format : UTF-8
Codec ID : S_TEXT/UTF8
Codec ID/Info : UTF-8 Plain Text
Duration : 1 h 28 min
Bit rate : 79 b/s
Frame rate : 0.275 FPS
Count of elements : 1462
Stream size : 51.7 KiB (0%)
Language : Korean
Default : No
Forced : No

Text #15
ID : 17
Format : UTF-8
Codec ID : S_TEXT/UTF8
Codec ID/Info : UTF-8 Plain Text
Duration : 1 h 28 min
Bit rate : 61 b/s
Frame rate : 0.227 FPS
Count of elements : 1207
Stream size : 39.9 KiB (0%)
Language : Norwegian Bokmal
Default : No
Forced : No

Text #16
ID : 18
Format : UTF-8
Codec ID : S_TEXT/UTF8
Codec ID/Info : UTF-8 Plain Text
Duration : 1 h 28 min
Bit rate : 66 b/s
Frame rate : 0.226 FPS
Count of elements : 1198
Stream size : 43.1 KiB (0%)
Language : Dutch
Default : No
Forced : No

Text #17
ID : 19
Format : UTF-8
Codec ID : S_TEXT/UTF8
Codec ID/Info : UTF-8 Plain Text
Duration : 1 h 28 min
Bit rate : 54 b/s
Frame rate : 0.264 FPS
Count of elements : 1404
Stream size : 35.4 KiB (0%)
Language : Polish
Default : No
Forced : No

Text #18
ID : 20
Format : UTF-8
Codec ID : S_TEXT/UTF8
Codec ID/Info : UTF-8 Plain Text
Duration : 1 h 28 min
Bit rate : 72 b/s
Frame rate : 0.271 FPS
Count of elements : 1438
Stream size : 46.9 KiB (0%)
Title : Brazilian
Language : Portuguese (BR)
Default : No
Forced : No

Text #19
ID : 21
Format : UTF-8
Codec ID : S_TEXT/UTF8
Codec ID/Info : UTF-8 Plain Text
Duration : 1 h 28 min
Bit rate : 76 b/s
Frame rate : 0.274 FPS
Count of elements : 1457
Stream size : 49.4 KiB (0%)
Title : European
Language : Portuguese (PT)
Default : No
Forced : No

Text #20
ID : 22
Format : UTF-8
Codec ID : S_TEXT/UTF8
Codec ID/Info : UTF-8 Plain Text
Duration : 1 h 28 min
Bit rate : 77 b/s
Frame rate : 0.273 FPS
Count of elements : 1451
Stream size : 50.1 KiB (0%)
Language : Romanian
Default : No
Forced : No

Text #21
ID : 23
Format : UTF-8
Codec ID : S_TEXT/UTF8
Codec ID/Info : UTF-8 Plain Text
Duration : 1 h 30 min
Bit rate : 68 b/s
Frame rate : 0.232 FPS
Count of elements : 1259
Stream size : 45.3 KiB (0%)
Language : Swedish
Default : No
Forced : No

Text #22
ID : 24
Format : UTF-8
Codec ID : S_TEXT/UTF8
Codec ID/Info : UTF-8 Plain Text
Duration : 1 h 28 min
Bit rate : 191 b/s
Frame rate : 0.275 FPS
Count of elements : 1461
Stream size : 124 KiB (0%)
Language : Thai
Default : No
Forced : No

Text #23
ID : 25
Format : UTF-8
Codec ID : S_TEXT/UTF8
Codec ID/Info : UTF-8 Plain Text
Duration : 1 h 28 min
Bit rate : 74 b/s
Frame rate : 0.284 FPS
Count of elements : 1508
Stream size : 48.5 KiB (0%)
Language : Turkish
Default : No
Forced : No

Text #24
ID : 26
Format : UTF-8
Codec ID : S_TEXT/UTF8
Codec ID/Info : UTF-8 Plain Text
Duration : 1 h 33 min
Bit rate : 65 b/s
Frame rate : 0.259 FPS
Count of elements : 1457
Stream size : 44.9 KiB (0%)
Title : 简体
Language : Chinese (Simplied)

Default : No
Forced : No

Text #25
ID : 27
Format : UTF-8
Codec ID : S_TEXT/UTF8
Codec ID/Info : UTF-8 Plain Text
Duration : 1 h 28 min
Bit rate : 70 b/s
Frame rate : 0.274 FPS
Count of elements : 1457
Stream size : 45.8 KiB (0%)
Title : 繁体
Language : Chinese (Traditional)

Default : No
Forced : No

Menu
00:00:00.000 : enart 01
01:30:49.450 : en:Credits

推荐使用qBittorrent、uTorrent、BitComet等下载软件,有条件的推荐115或会员软件下载!

下载地址
游客,如果您要查看本帖隐藏内容请回复





上一篇:凯文·哈特:管他呢 [简繁中字] / (202) 4K高清版本下载
下一篇:毕业季 [简繁中字] / Senior Year (2022) 4K高清版本下载
回复

使用道具 举报

主题

帖子

0

积分

新手上路

Rank: 1

积分
0
发表于 2023-1-3 12:43:39 | 显示全部楼层
感谢分享好电影
回复 支持 反对

使用道具 举报

0

主题

2

帖子

9

积分

新手上路

Rank: 1

积分
9
发表于 2023-1-3 15:34:04 | 显示全部楼层
使用qBittorrent、uTorrent、BitComet等下
回复 支持 反对

使用道具 举报

0

主题

226

帖子

1016

积分

4K家园VIP

Rank: 9Rank: 9Rank: 9

积分
1016
发表于 2023-1-7 18:52:23 | 显示全部楼层
楼主辛苦了,谢谢楼主,感谢楼主分享,楼主好人一生平安!!!
回复 支持 反对

使用道具 举报

您需要登录后才可以回帖 登录 | 立即注册

本版积分规则

精彩图文
Archiver|手机版|TAG|Sitemap|新帖|专题|联系我们:邮箱: 4kjia.com@gmail.com   

4k家园   ©2019