[4K电影] 毕业季 [简繁中字] / Senior Year (2022) 4K高清版本下载

[复制链接]

主题

帖子

0

积分

超级版主

Rank: 8Rank: 8

积分
0
 楼主| 发表于 2023-1-2 21:09:16 | 显示全部楼层 |阅读模式
本帖最后由 最爱4K哟 于 2023-1-2 22:06 编辑

QQ图片20230102220713_副本.png

◎译  名 毕业季/重返毕业季/高中无限期
◎片  名 Senior Year
◎年  代 2022
◎产  地 美国
◎类  别 喜剧
◎语  言 英语
◎上映日期 2022-05-13(美国)
◎IMDb评分 5.5/10 from 38353 users 更新 : 2023-01-01
◎IMDb链接 https://www.imdb.com/title/tt5315212/
◎豆瓣评分 6.3/10 from 3690 users 更新 : 2023-01-02
◎豆瓣链接 https://movie.douban.com/subject/35456459/
◎导  演 亚历克斯·哈德卡瑟尔 Alex Hardcastle
◎编  剧 布兰登·斯科特·琼斯 Brandon Scott Jones / 安德鲁·克劳尔 Andrew Knauer
◎主  演 蕾蓓尔·威尔森 Rebel Wilson
      安格瑞·赖斯 Angourie Rice
      艾丽西亚·希尔维斯通 Alicia Silverstone
      玛丽·霍兰 Mary Holland
      茉莉·布朗 Molly Brown
      山姆·理查森 Sam Richardson
      泽尔·亚当斯 Zaire Adams
      佐伊·晁 Zo? Chao
      迈克尔·西米诺 Michael Cimino
      克里斯·帕内尔 Chris Parnell
      安娜·伊·普伊格 Ana Yi Puig
      贾斯汀·哈特雷 Justin Hartley
      泰勒·巴恩哈特 Tyler Barnhardt
      贾德·本德尔 Jade Bender
      阿凡提卡·万达纳普 Avantika Vandanapu
      乔舒亚·科利 Joshua Colley
      杰里米·雷·泰勒 Jeremy Ray Taylor
      布兰登·斯科特·琼斯 Brandon Scott Jones
      蒂凡尼·丹妮丝·霍布斯 Tiffany Denise Hobbs
      史蒂夫·青木 Steve Aoki
      约翰·克劳 John Crow
      莱纳德·R·巴特勒 Leonard R. Butler
      Darrell Snedeger Darrell Snedeger
      约翰·盖蒂尔 John Gettier


◎简  介


  一个拉拉队队长在昏迷20年后醒来,她回到高中,试着恢复自己的地位,并要求拿回舞会皇后的桂冠。

Video
ID : 1
Format : HEVC
Format/Info : High Efficiency Video Coding
Format profile : Main 10@L5@Main
HDR format : Dolby Vision, Version 1.0, dvhe.08.06, BL+RPU, HDR10 compatible / SMPTE ST 2086, HDR10 compatible
Codec ID : V_MPEGH/ISO/HEVC
Duration : 1 h 51 min
Bit rate : 16.1 Mb/s
Width : 3 840 pixels
Height : 2 160 pixels
Display aspect ratio : 16:9
Frame rate mode : Constant
Frame rate : 24.000 FPS
Color space : YUV
Chroma subsampling : 4:2:0 (Type 2)
Bit depth : 10 bits
Bits/(Pixel*Frame) : 0.081
Stream size : 12.6 GiB (95%)
Default : Yes
Forced : No
Color range : Limited
Color primaries : BT.2020
Transfer characteristics : PQ
Matrix coefficients : BT.2020 non-constant
Mastering display color primaries : Display P3
Mastering display luminance : min: 0.0001 cd/m2, max: 1000 cd/m2
Maximum Content Light Level : 990 cd/m2
Maximum Frame-Average Light Level : 636 cd/m2

Audio
ID : 2
Format : E-AC-3 JOC
Format/Info : Enhanced AC-3 with Joint Object Coding
Commercial name : Dolby Digital Plus with Dolby Atmos
Codec ID : A_EAC3
Duration : 1 h 53 min
Bit rate mode : Constant
Bit rate : 768 kb/s
Channel(s) : 6 channels
Channel layout : L R C LFE Ls Rs
Sampling rate : 48.0 kHz
Frame rate : 31.250 FPS (1536 SPF)
Compression mode : Lossy
Stream size : 624 MiB (5%)
Language : English
Service kind : Complete Main
Default : Yes
Forced : No
Complexity index : 16
Number of dynamic objects : 15
Bed channel count : 1 channel
Bed channel configuration : LFE

Text #1
ID : 3
Format : UTF-8
Codec ID : S_TEXT/UTF8
Codec ID/Info : UTF-8 Plain Text
Duration : 1 h 51 min
Bit rate : 107 b/s
Frame rate : 0.344 FPS
Count of elements : 2299
Stream size : 87.3 KiB (0%)
Title : SDH
Language : English
Default : No
Forced : No

Text #2
ID : 4
Format : UTF-8
Codec ID : S_TEXT/UTF8
Codec ID/Info : UTF-8 Plain Text
Duration : 1 h 51 min
Bit rate : 129 b/s
Frame rate : 0.273 FPS
Count of elements : 1821
Stream size : 105 KiB (0%)
Language : Arabic
Default : No
Forced : No

Text #3
ID : 5
Format : UTF-8
Codec ID : S_TEXT/UTF8
Codec ID/Info : UTF-8 Plain Text
Duration : 1 h 51 min
Bit rate : 68 b/s
Frame rate : 0.254 FPS
Count of elements : 1696
Stream size : 55.3 KiB (0%)
Language : Catalan
Default : No
Forced : No

Text #4
ID : 6
Format : UTF-8
Codec ID : S_TEXT/UTF8
Codec ID/Info : UTF-8 Plain Text
Duration : 1 h 51 min
Bit rate : 71 b/s
Frame rate : 0.260 FPS
Count of elements : 1737
Stream size : 58.4 KiB (0%)
Language : Czech
Default : No
Forced : No

Text #5
ID : 7
Format : UTF-8
Codec ID : S_TEXT/UTF8
Codec ID/Info : UTF-8 Plain Text
Duration : 1 h 51 min
Bit rate : 69 b/s
Frame rate : 0.239 FPS
Count of elements : 1598
Stream size : 56.7 KiB (0%)
Language : Danish
Default : No
Forced : No

Text #6
ID : 8
Format : UTF-8
Codec ID : S_TEXT/UTF8
Codec ID/Info : UTF-8 Plain Text
Duration : 1 h 51 min
Bit rate : 76 b/s
Frame rate : 0.247 FPS
Count of elements : 1650
Stream size : 62.1 KiB (0%)
Language : German
Default : No
Forced : No

Text #7
ID : 9
Format : UTF-8
Codec ID : S_TEXT/UTF8
Codec ID/Info : UTF-8 Plain Text
Duration : 1 h 51 min
Bit rate : 117 b/s
Frame rate : 0.286 FPS
Count of elements : 1909
Stream size : 95.3 KiB (0%)
Language : Greek
Default : No
Forced : No

Text #8
ID : 10
Format : UTF-8
Codec ID : S_TEXT/UTF8
Codec ID/Info : UTF-8 Plain Text
Duration : 1 h 48 min
Bit rate : 90 b/s
Frame rate : 0.305 FPS
Count of elements : 1985
Stream size : 71.8 KiB (0%)
Title : SDH
Language : Spanish
Default : No
Forced : No

Text #9
ID : 11
Format : UTF-8
Codec ID : S_TEXT/UTF8
Codec ID/Info : UTF-8 Plain Text
Duration : 1 h 51 min
Bit rate : 72 b/s
Frame rate : 0.265 FPS
Count of elements : 1767
Stream size : 58.7 KiB (0%)
Language : Spanish
Default : No
Forced : No

Text #10
ID : 12
Format : UTF-8
Codec ID : S_TEXT/UTF8
Codec ID/Info : UTF-8 Plain Text
Duration : 1 h 48 min
Bit rate : 83 b/s
Frame rate : 0.281 FPS
Count of elements : 1826
Stream size : 66.3 KiB (0%)
Language : Spanish
Default : No
Forced : No

Text #11
ID : 13
Format : UTF-8
Codec ID : S_TEXT/UTF8
Codec ID/Info : UTF-8 Plain Text
Duration : 1 h 51 min
Bit rate : 66 b/s
Frame rate : 0.280 FPS
Count of elements : 1864
Stream size : 54.5 KiB (0%)
Title : Europe
Language : Spanish (150)
Default : No
Forced : No

Text #12
ID : 14
Format : UTF-8
Codec ID : S_TEXT/UTF8
Codec ID/Info : UTF-8 Plain Text
Duration : 1 h 51 min
Bit rate : 68 b/s
Frame rate : 0.262 FPS
Count of elements : 1748
Stream size : 55.7 KiB (0%)
Language : Basque
Default : No
Forced : No

Text #13
ID : 15
Format : UTF-8
Codec ID : S_TEXT/UTF8
Codec ID/Info : UTF-8 Plain Text
Duration : 1 h 51 min
Bit rate : 68 b/s
Frame rate : 0.242 FPS
Count of elements : 1614
Stream size : 55.6 KiB (0%)
Language : Finnish
Default : No
Forced : No

Text #14
ID : 16
Format : UTF-8
Codec ID : S_TEXT/UTF8
Codec ID/Info : UTF-8 Plain Text
Duration : 1 h 51 min
Bit rate : 70 b/s
Frame rate : 0.257 FPS
Count of elements : 1715
Stream size : 57.6 KiB (0%)
Language : fil
Default : No
Forced : No

Text #15
ID : 17
Format : UTF-8
Codec ID : S_TEXT/UTF8
Codec ID/Info : UTF-8 Plain Text
Duration : 1 h 48 min
Bit rate : 74 b/s
Frame rate : 0.247 FPS
Count of elements : 1607
Stream size : 58.8 KiB (0%)
Language : French
Default : No
Forced : No

Text #16
ID : 18
Format : UTF-8
Codec ID : S_TEXT/UTF8
Codec ID/Info : UTF-8 Plain Text
Duration : 1 h 51 min
Bit rate : 62 b/s
Frame rate : 0.262 FPS
Count of elements : 1750
Stream size : 50.8 KiB (0%)
Language : Galician
Default : No
Forced : No

Text #17
ID : 19
Format : UTF-8
Codec ID : S_TEXT/UTF8
Codec ID/Info : UTF-8 Plain Text
Duration : 1 h 51 min
Bit rate : 116 b/s
Frame rate : 0.274 FPS
Count of elements : 1826
Stream size : 95.1 KiB (0%)
Language : Hebrew
Default : No
Forced : No

Text #18
ID : 20
Format : UTF-8
Codec ID : S_TEXT/UTF8
Codec ID/Info : UTF-8 Plain Text
Duration : 1 h 51 min
Bit rate : 66 b/s
Frame rate : 0.249 FPS
Count of elements : 1662
Stream size : 53.9 KiB (0%)
Language : Croatian
Default : No
Forced : No

Text #19
ID : 21
Format : UTF-8
Codec ID : S_TEXT/UTF8
Codec ID/Info : UTF-8 Plain Text
Duration : 1 h 51 min
Bit rate : 73 b/s
Frame rate : 0.254 FPS
Count of elements : 1691
Stream size : 59.8 KiB (0%)
Language : Hungarian
Default : No
Forced : No

Text #20
ID : 22
Format : UTF-8
Codec ID : S_TEXT/UTF8
Codec ID/Info : UTF-8 Plain Text
Duration : 1 h 51 min
Bit rate : 70 b/s
Frame rate : 0.263 FPS
Count of elements : 1751
Stream size : 57.6 KiB (0%)
Language : Indonesian
Default : No
Forced : No

Text #21
ID : 23
Format : UTF-8
Codec ID : S_TEXT/UTF8
Codec ID/Info : UTF-8 Plain Text
Duration : 1 h 51 min
Bit rate : 72 b/s
Frame rate : 0.247 FPS
Count of elements : 1645
Stream size : 59.4 KiB (0%)
Language : Italian
Default : No
Forced : No

Text #22
ID : 24
Format : UTF-8
Codec ID : S_TEXT/UTF8
Codec ID/Info : UTF-8 Plain Text
Duration : 1 h 48 min
Bit rate : 70 b/s
Frame rate : 0.273 FPS
Count of elements : 1778
Stream size : 55.8 KiB (0%)
Language : Japanese
Default : No
Forced : No

Text #23
ID : 25
Format : UTF-8
Codec ID : S_TEXT/UTF8
Codec ID/Info : UTF-8 Plain Text
Duration : 1 h 51 min
Bit rate : 94 b/s
Frame rate : 0.265 FPS
Count of elements : 1769
Stream size : 76.5 KiB (0%)
Language : Korean
Default : No
Forced : No

Text #24
ID : 26
Format : UTF-8
Codec ID : S_TEXT/UTF8
Codec ID/Info : UTF-8 Plain Text
Duration : 1 h 51 min
Bit rate : 69 b/s
Frame rate : 0.258 FPS
Count of elements : 1717
Stream size : 56.7 KiB (0%)
Language : Malay
Default : No
Forced : No

Text #25
ID : 27
Format : UTF-8
Codec ID : S_TEXT/UTF8
Codec ID/Info : UTF-8 Plain Text
Duration : 1 h 51 min
Bit rate : 65 b/s
Frame rate : 0.236 FPS
Count of elements : 1573
Stream size : 53.1 KiB (0%)
Language : Norwegian Bokmal
Default : No
Forced : No

Text #26
ID : 28
Format : UTF-8
Codec ID : S_TEXT/UTF8
Codec ID/Info : UTF-8 Plain Text
Duration : 1 h 51 min
Bit rate : 67 b/s
Frame rate : 0.231 FPS
Count of elements : 1537
Stream size : 54.7 KiB (0%)
Language : Dutch
Default : No
Forced : No

Text #27
ID : 29
Format : UTF-8
Codec ID : S_TEXT/UTF8
Codec ID/Info : UTF-8 Plain Text
Duration : 1 h 51 min
Bit rate : 70 b/s
Frame rate : 0.262 FPS
Count of elements : 1748
Stream size : 57.6 KiB (0%)
Language : Polish
Default : No
Forced : No

Text #28
ID : 30
Format : UTF-8
Codec ID : S_TEXT/UTF8
Codec ID/Info : UTF-8 Plain Text
Duration : 1 h 51 min
Bit rate : 73 b/s
Frame rate : 0.254 FPS
Count of elements : 1695
Stream size : 59.7 KiB (0%)
Language : Portuguese
Default : No
Forced : No

Text #29
ID : 31
Format : UTF-8
Codec ID : S_TEXT/UTF8
Codec ID/Info : UTF-8 Plain Text
Duration : 1 h 51 min
Bit rate : 92 b/s
Frame rate : 0.301 FPS
Count of elements : 2017
Stream size : 75.5 KiB (0%)
Title : Brazil (SDH)
Language : Portuguese (BR)
Default : No
Forced : No

Text #30
ID : 32
Format : UTF-8
Codec ID : S_TEXT/UTF8
Codec ID/Info : UTF-8 Plain Text
Duration : 1 h 51 min
Bit rate : 69 b/s
Frame rate : 0.260 FPS
Count of elements : 1734
Stream size : 56.9 KiB (0%)
Title : Brazil
Language : Portuguese (BR)
Default : No
Forced : No

Text #31
ID : 33
Format : UTF-8
Codec ID : S_TEXT/UTF8
Codec ID/Info : UTF-8 Plain Text
Duration : 1 h 48 min
Bit rate : 86 b/s
Frame rate : 0.282 FPS
Count of elements : 1837
Stream size : 68.5 KiB (0%)
Title : Brazil
Language : Portuguese (BR)
Default : No
Forced : No

Text #32
ID : 34
Format : UTF-8
Codec ID : S_TEXT/UTF8
Codec ID/Info : UTF-8 Plain Text
Duration : 1 h 51 min
Bit rate : 81 b/s
Frame rate : 0.260 FPS
Count of elements : 1732
Stream size : 66.0 KiB (0%)
Language : Romanian
Default : No
Forced : No

Text #33
ID : 35
Format : UTF-8
Codec ID : S_TEXT/UTF8
Codec ID/Info : UTF-8 Plain Text
Duration : 1 h 51 min
Bit rate : 120 b/s
Frame rate : 0.264 FPS
Count of elements : 1758
Stream size : 97.8 KiB (0%)
Language : Russian
Default : No
Forced : No

Text #34
ID : 36
Format : UTF-8
Codec ID : S_TEXT/UTF8
Codec ID/Info : UTF-8 Plain Text
Duration : 1 h 51 min
Bit rate : 65 b/s
Frame rate : 0.239 FPS
Count of elements : 1592
Stream size : 53.6 KiB (0%)
Language : Swedish
Default : No
Forced : No

Text #35
ID : 37
Format : UTF-8
Codec ID : S_TEXT/UTF8
Codec ID/Info : UTF-8 Plain Text
Duration : 1 h 51 min
Bit rate : 206 b/s
Frame rate : 0.268 FPS
Count of elements : 1785
Stream size : 168 KiB (0%)
Language : Thai
Default : No
Forced : No

Text #36
ID : 38
Format : UTF-8
Codec ID : S_TEXT/UTF8
Codec ID/Info : UTF-8 Plain Text
Duration : 1 h 51 min
Bit rate : 70 b/s
Frame rate : 0.261 FPS
Count of elements : 1737
Stream size : 57.3 KiB (0%)
Language : Turkish
Default : No
Forced : No

Text #37
ID : 39
Format : UTF-8
Codec ID : S_TEXT/UTF8
Codec ID/Info : UTF-8 Plain Text
Duration : 1 h 51 min
Bit rate : 117 b/s
Frame rate : 0.253 FPS
Count of elements : 1689
Stream size : 95.6 KiB (0%)
Language : Ukrainian
Default : No
Forced : No

Text #38
ID : 40
Format : UTF-8
Codec ID : S_TEXT/UTF8
Codec ID/Info : UTF-8 Plain Text
Duration : 1 h 51 min
Bit rate : 103 b/s
Frame rate : 0.262 FPS
Count of elements : 1747
Stream size : 84.2 KiB (0%)
Language : Vietnamese
Default : No
Forced : No

Text #39
ID : 41
Format : UTF-8
Codec ID : S_TEXT/UTF8
Codec ID/Info : UTF-8 Plain Text
Duration : 1 h 51 min
Bit rate : 76 b/s
Frame rate : 0.262 FPS
Count of elements : 1745
Stream size : 62.4 KiB (0%)
Title : 简体
Language : Chinese (Simplied)

Default : No
Forced : No

Text #40
ID : 42
Format : UTF-8
Codec ID : S_TEXT/UTF8
Codec ID/Info : UTF-8 Plain Text
Duration : 1 h 51 min
Bit rate : 80 b/s
Frame rate : 0.291 FPS
Count of elements : 1939
Stream size : 65.4 KiB (0%)
Title : 繁体
Language : Chinese (Traditional)

Default : No
Forced : No

推荐使用qBittorrent、uTorrent、BitComet等下载软件,有条件的推荐115或会员软件下载!

下载地址


游客,如果您要查看本帖隐藏内容请回复

游客,如果您要查看本帖隐藏内容请回复





上一篇:小恶魔 [简繁中字] / Little Evil (2017) 4K高清版本下载
下一篇:爱人的最后一封情书 [简繁中字] (2021) 4K高清版本下载
回复

使用道具 举报

您需要登录后才可以回帖 登录 | 立即注册

本版积分规则

精彩图文
Archiver|手机版|TAG|Sitemap|新帖|专题|联系我们:邮箱: 4kjia.com@gmail.com   

4k家园   ©2019