[4K电影] 悲情三角 / Triangle of Sadness (2022)4K高清版本下载

[复制链接]

主题

帖子

0

积分

超级版主

Rank: 8Rank: 8

积分
0
 楼主| 发表于 2023-1-2 21:51:09 | 显示全部楼层 |阅读模式
本帖最后由 最爱4K哟 于 2023-1-2 22:04 编辑

QQ图片20230102220011_副本.png

◎标  题 悲情三角
◎译  名 无限悲情 / 疯狂富作用(台) / 悲痛三角 / 悲伤三角 / 悲哀三角 / Sans filtre
◎片  名 Triangle of Sadness
◎年  代 2022
◎产  地 瑞典 / 法国 / 英国 / 德国
◎类  别 剧情 / 喜剧
◎语  言 英语
◎上映日期 2022-05-21(戛纳电影节)
◎IMDb评分 7.6/10 from 46814 users 更新 : 2023-01-01
◎IMDb链接 https://www.imdb.com/title/tt7322224/
◎豆瓣评分 7.6/10 from 988 users 更新 : 2023-01-02
◎豆瓣链接 https://movie.douban.com/subject/27066152/
◎片  长 150分钟
◎导  演 鲁本·奥斯特伦德 Ruben Östlund
◎编  剧 鲁本·奥斯特伦德 Ruben Östlund
◎演  员 伍迪·哈里森 Woody Harrelson
       哈里斯·迪金森 Harris Dickinson
       查尔比·迪恩·科里克 Charlbi Dean Kriek
       奥利弗·福德·戴维斯 Oliver Ford Davies
       Hanna Oldenburg Hanna Oldenburg
       扎特科·巴瑞克 Zlatko Buric
       伊赫斯·贝尔本 Iris Berben
       Carolina Gynning Carolina Gynning
       松妮·梅勒斯 Sunnyi Melles
       Arvin Kananian Arvin Kananian
       亨里克·多辛 Henrik Dorsin
       拉尔夫·希查 Ralph Schicha
       多莉·德莱昂 Dolly de Leon
       马尔特·戈丁格 Malte Gårdinger


◎简  介


  Carl和Yaya是一对很有影响力的模特夫妇。时装周结束后,他们受邀来到一艘游艇进行豪华的跨洋之旅,船员们都非常尽职地为度假者们服务。大名鼎鼎的晚宴即将举办,但船长却拒绝离开他的船舱。当暴风雨来临并危及乘客的舒适体验时,事情发生了意想不到的转变,平衡被打破……
Video
ID : 1
Format : HEVC
Format/Info : High Efficiency Video Coding
Format profile : Main 10@L5@High
Codec ID : V_MPEGH/ISO/HEVC
Duration : 2 h 27 min
Bit rate : 11.9 Mb/s
Width : 3 840 pixels
Height : 1 604 pixels
Display aspect ratio : 2.40:1
Frame rate mode : Constant
Frame rate : 23.976 (24000/1001) FPS
Color space : YUV
Chroma subsampling : 4:2:0
Bit depth : 10 bits
Bits/(Pixel*Frame) : 0.081
Stream size : 12.3 GiB (97%)
Default : Yes
Forced : No
Color range : Limited
Color primaries : BT.709
Transfer characteristics : BT.709
Matrix coefficients : BT.709

Audio
ID : 2
Format : AC-3
Format/Info : Audio Coding 3
Commercial name : Dolby Digital
Codec ID : A_AC3
Duration : 2 h 27 min
Bit rate mode : Constant
Bit rate : 384 kb/s
Channel(s) : 6 channels
Channel layout : L R C LFE Ls Rs
Sampling rate : 48.0 kHz
Frame rate : 31.250 FPS (1536 SPF)
Compression mode : Lossy
Stream size : 406 MiB (3%)
Title : British
Language : English (GB)
Service kind : Complete Main
Default : Yes
Forced : No

Text #1
ID : 3
Format : UTF-8
Codec ID : S_TEXT/UTF8
Codec ID/Info : UTF-8 Plain Text
Duration : 2 h 16 min
Bit rate : 2 b/s
Frame rate : 0.013 FPS
Count of elements : 108
Stream size : 2.60 KiB (0%)
Title : English British (Forced)
Language : English (GB)
Default : Yes
Forced : Yes

Text #2
ID : 4
Format : UTF-8
Codec ID : S_TEXT/UTF8
Codec ID/Info : UTF-8 Plain Text
Duration : 2 h 23 min
Bit rate : 57 b/s
Frame rate : 0.210 FPS
Count of elements : 1811
Stream size : 60.9 KiB (0%)
Title : English British (CC)
Language : English (GB)
Default : No
Forced : No

Text #3
ID : 5
Format : UTF-8
Codec ID : S_TEXT/UTF8
Codec ID/Info : UTF-8 Plain Text
Duration : 2 h 28 min
Bit rate : 43 b/s
Frame rate : 0.199 FPS
Count of elements : 1771
Stream size : 47.6 KiB (0%)
Title : French European
Language : French (FR)
Default : No
Forced : No

Menu
00:00:00.000 : en:Chapter 01
00:09:59.974 : en:Chapter 02
00:18:23.770 : en:Chapter 03
00:26:31.299 : en:Chapter 04
00:34:49.339 : en:Chapter 05
00:44:27.751 : en:Chapter 06
00:55:34.793 : en:Chapter 07
01:03:57.045 : en:Chapter 08
01:12:14.751 : en:Chapter 09
01:21:24.551 : en:Chapter 10
01:31:03.046 : en:Chapter 11
01:45:23.156 : en:Chapter 12
01:53:23.887 : en:Chapter 13
02:01:29.831 : en:Chapter 14
02:11:31.516 : en:Chapter 15
02:23:09.422 : en:Chapter 16

推荐使用qBittorrent、uTorrent、BitComet等下载软件,有条件的推荐115或会员软件下载!

下载地址

游客,如果您要查看本帖隐藏内容请回复






上一篇:体坛秘史:AND1的兴衰 [简繁中字] (2022) 4K高清版本下载
下一篇:无限旅程 [简繁中字] / A Trip to Infinity (2022) 4K高清版本下载
回复

使用道具 举报

0

主题

1

帖子

6

积分

新手上路

Rank: 1

积分
6
发表于 2023-1-2 22:11:53 | 显示全部楼层
x想看
回复

使用道具 举报

0

主题

1

帖子

6

积分

新手上路

Rank: 1

积分
6
发表于 2023-1-3 00:09:20 | 显示全部楼层
111111111111
回复 支持 反对

使用道具 举报

0

主题

11

帖子

42

积分

新手上路

Rank: 1

积分
42
发表于 2023-1-3 11:13:20 | 显示全部楼层
aaaaaa
回复

使用道具 举报

0

主题

7

帖子

81

积分

新手上路

Rank: 1

积分
81
发表于 2023-1-3 13:33:43 | 显示全部楼层
看个片真费劲
回复 支持 反对

使用道具 举报

0

主题

4

帖子

15

积分

新手上路

Rank: 1

积分
15
发表于 2023-1-3 13:58:07 | 显示全部楼层
阿斯蒂芬阿斯蒂芬飒飒的
回复 支持 反对

使用道具 举报

0

主题

3

帖子

12

积分

新手上路

Rank: 1

积分
12
发表于 2023-1-3 18:53:40 | 显示全部楼层
楼主牛逼
回复

使用道具 举报

0

主题

5

帖子

18

积分

新手上路

Rank: 1

积分
18
发表于 2023-1-3 20:18:44 来自手机 | 显示全部楼层
感谢分享
回复

使用道具 举报

0

主题

5

帖子

18

积分

新手上路

Rank: 1

积分
18
发表于 2023-1-3 21:57:45 | 显示全部楼层
XIEXIEFENXIANG
回复 支持 反对

使用道具 举报

0

主题

1

帖子

6

积分

新手上路

Rank: 1

积分
6
发表于 2023-1-7 14:05:41 | 显示全部楼层
1111111
回复

使用道具 举报

您需要登录后才可以回帖 登录 | 立即注册

本版积分规则

精彩图文
Archiver|手机版|TAG|Sitemap|新帖|专题|联系我们:邮箱: 4kjia.com@gmail.com   

4k家园   ©2019