[4K电影] 8号警报 / Code 8 (2019) 4K高清版本下载

[复制链接]

主题

帖子

0

积分

超级版主

Rank: 8Rank: 8

积分
0
 楼主| 发表于 2023-1-3 12:53:32 | 显示全部楼层 |阅读模式
本帖最后由 最爱4K哟 于 2023-1-3 12:53 编辑

QQ图片20230103125306_副本.png

◎标  题 8号警报
◎译  名 8级警戒(台) / 八方急援 / 代号8
◎片  名 Code 8
◎年  代 2019
◎产  地 加拿大
◎类  别 剧情 / 科幻 / 犯罪
◎语  言 英语
◎上映日期 2019-10-03(西班牙锡切斯电影节) / 2019-12-13(加拿大 / 美国)
◎IMDb评分 6.1/10 from 40737 users 更新 : 2022-12-31
◎IMDb链接 https://www.imdb.com/title/tt6259380/
◎豆瓣评分 5.8/10 from 6199 users 更新 : 2023-01-03
◎豆瓣链接 https://movie.douban.com/subject/27066172/
◎片  长 98分钟
◎导  演 杰夫·陈 Jeff Chan
◎编  剧 克里斯·帕尔 Chris Pare /  杰夫·陈 Jeff Chan
◎演  员 斯蒂芬·阿梅尔 Stephen Amell
       罗比·阿美尔 Robbie Amell
       姜成镐 Sung Kang
       蕾斯拉·德·奥利维拉 Laysla De Oliveira
       格雷格·布瑞克 Greg Bryk
       卡瑞·玛切特 Kari Matchett
       彼德·奥德博拉治 Peter Outerbridge
       肖恩·本森 Shaun Benson
       阿隆·艾布拉姆斯 Aaron Abrams
       格伦达·布拉甘扎 Glenda Braganza
       西蒙·诺斯伍德 Simon Northwood
       周豪 Ho Chow
       凯拉·凯恩 Kyla Kane
       杰夫·辛纳萨克 Jeff Sinasac
       乔·维奇洛 Joe Vercillo


◎简  介


  曾经的“未来之城”林肯城,4%人口具有超能力,其中大多数却在自动化潮流中陷入贫困与歧视的泥沼,日渐成为社会负担甚至隐患,康纳·里德(罗比·艾梅尔 饰)便是这样一名青年临时工——面对母亲的天价医疗费,债台高筑的他不得不铤而走险,直面铁面无情的机械军警卫士。   影片由杰夫·陈(Jeff Chan)创作执导、克里斯·帕雷(Chris Paré)撰写剧本,改编自两人2016年同名科幻短片,并与主演艾梅尔兄弟等人执行制片。
Video
ID : 1
Format : HEVC
Format/Info : High Efficiency Video Coding
Format profile : Main 10@L5@Main
Codec ID : V_MPEGH/ISO/HEVC
Duration : 1 h 38 min
Bit rate : 17.2 Mb/s
Width : 3 840 pixels
Height : 2 160 pixels
Display aspect ratio : 16:9
Frame rate mode : Constant
Frame rate : 23.976 (24000/1001) FPS
Color space : YUV
Chroma subsampling : 4:2:0
Bit depth : 10 bits
Bits/(Pixel*Frame) : 0.086
Stream size : 11.8 GiB (96%)
Language : English
Default : Yes
Forced : No
Color range : Limited
Color primaries : BT.709
Transfer characteristics : BT.709
Matrix coefficients : BT.709

Audio
ID : 2
Format : E-AC-3
Format/Info : Enhanced AC-3
Commercial name : Dolby Digital Plus
Codec ID : A_EAC3
Duration : 1 h 38 min
Bit rate mode : Constant
Bit rate : 640 kb/s
Channel(s) : 6 channels
Channel layout : L R C LFE Ls Rs
Sampling rate : 48.0 kHz
Frame rate : 31.250 FPS (1536 SPF)
Compression mode : Lossy
Stream size : 451 MiB (4%)
Language : English
Service kind : Complete Main
Default : Yes
Forced : No

Text #1
ID : 3
Format : UTF-8
Codec ID : S_TEXT/UTF8
Codec ID/Info : UTF-8 Plain Text
Duration : 13 min 55 s
Bit rate : 0 b/s
Frame rate : 0.002 FPS
Count of elements : 2
Stream size : 22.0 Bytes (0%)
Title : Forced
Language : English
Default : Yes
Forced : Yes

Text #2
ID : 4
Format : UTF-8
Codec ID : S_TEXT/UTF8
Codec ID/Info : UTF-8 Plain Text
Duration : 1 h 27 min
Bit rate : 53 b/s
Frame rate : 0.229 FPS
Count of elements : 1199
Stream size : 34.0 KiB (0%)
Language : English
Default : No
Forced : No

Text #3
ID : 5
Format : UTF-8
Codec ID : S_TEXT/UTF8
Codec ID/Info : UTF-8 Plain Text
Duration : 1 h 30 min
Bit rate : 62 b/s
Frame rate : 0.268 FPS
Count of elements : 1458
Stream size : 41.4 KiB (0%)
Title : SDH
Language : English
Default : No
Forced : No

Text #4
ID : 6
Format : UTF-8
Codec ID : S_TEXT/UTF8
Codec ID/Info : UTF-8 Plain Text
Duration : 1 h 37 min
Bit rate : 43 b/s
Frame rate : 0.168 FPS
Count of elements : 983
Stream size : 31.2 KiB (0%)
Language : Danish
Default : No
Forced : No

Text #5
ID : 7
Format : UTF-8
Codec ID : S_TEXT/UTF8
Codec ID/Info : UTF-8 Plain Text
Duration : 1 h 37 min
Bit rate : 45 b/s
Frame rate : 0.167 FPS
Count of elements : 979
Stream size : 32.6 KiB (0%)
Title : Latin American
Language : Spanish (Latin America)
Default : No
Forced : No

Text #6
ID : 8
Format : UTF-8
Codec ID : S_TEXT/UTF8
Codec ID/Info : UTF-8 Plain Text
Duration : 1 h 37 min
Bit rate : 42 b/s
Frame rate : 0.183 FPS
Count of elements : 1068
Stream size : 30.1 KiB (0%)
Language : Spanish (ES)
Default : No
Forced : No

Text #7
ID : 9
Format : UTF-8
Codec ID : S_TEXT/UTF8
Codec ID/Info : UTF-8 Plain Text
Duration : 1 h 37 min
Bit rate : 40 b/s
Frame rate : 0.165 FPS
Count of elements : 965
Stream size : 29.3 KiB (0%)
Language : Finnish
Default : No
Forced : No

Text #8
ID : 10
Format : UTF-8
Codec ID : S_TEXT/UTF8
Codec ID/Info : UTF-8 Plain Text
Duration : 1 h 37 min
Bit rate : 43 b/s
Frame rate : 0.194 FPS
Count of elements : 1136
Stream size : 30.8 KiB (0%)
Language : fil
Default : No
Forced : No

Text #9
ID : 11
Format : UTF-8
Codec ID : S_TEXT/UTF8
Codec ID/Info : UTF-8 Plain Text
Duration : 1 h 37 min
Bit rate : 41 b/s
Frame rate : 0.165 FPS
Count of elements : 968
Stream size : 29.3 KiB (0%)
Language : French
Default : No
Forced : No

Text #10
ID : 12
Format : UTF-8
Codec ID : S_TEXT/UTF8
Codec ID/Info : UTF-8 Plain Text
Duration : 1 h 37 min
Bit rate : 37 b/s
Frame rate : 0.182 FPS
Count of elements : 1062
Stream size : 26.6 KiB (0%)
Language : Croatian
Default : No
Forced : No

Text #11
ID : 13
Format : UTF-8
Codec ID : S_TEXT/UTF8
Codec ID/Info : UTF-8 Plain Text
Duration : 1 h 37 min
Bit rate : 42 b/s
Frame rate : 0.183 FPS
Count of elements : 1073
Stream size : 30.7 KiB (0%)
Language : Italian
Default : No
Forced : No

Text #12
ID : 14
Format : UTF-8
Codec ID : S_TEXT/UTF8
Codec ID/Info : UTF-8 Plain Text
Duration : 1 h 37 min
Bit rate : 49 b/s
Frame rate : 0.196 FPS
Count of elements : 1144
Stream size : 35.3 KiB (0%)
Language : Korean
Default : No
Forced : No

Text #13
ID : 15
Format : UTF-8
Codec ID : S_TEXT/UTF8
Codec ID/Info : UTF-8 Plain Text
Duration : 1 h 37 min
Bit rate : 38 b/s
Frame rate : 0.177 FPS
Count of elements : 1033
Stream size : 27.4 KiB (0%)
Language : Norwegian Bokmal
Default : No
Forced : No

Text #14
ID : 16
Format : UTF-8
Codec ID : S_TEXT/UTF8
Codec ID/Info : UTF-8 Plain Text
Duration : 1 h 37 min
Bit rate : 41 b/s
Frame rate : 0.167 FPS
Count of elements : 979
Stream size : 29.5 KiB (0%)
Language : Dutch
Default : No
Forced : No

Text #15
ID : 17
Format : UTF-8
Codec ID : S_TEXT/UTF8
Codec ID/Info : UTF-8 Plain Text
Duration : 1 h 37 min
Bit rate : 36 b/s
Frame rate : 0.175 FPS
Count of elements : 1022
Stream size : 25.7 KiB (0%)
Language : Polish
Default : No
Forced : No

Text #16
ID : 18
Format : UTF-8
Codec ID : S_TEXT/UTF8
Codec ID/Info : UTF-8 Plain Text
Duration : 1 h 37 min
Bit rate : 39 b/s
Frame rate : 0.167 FPS
Count of elements : 977
Stream size : 28.5 KiB (0%)
Title : Brazilian
Language : Portuguese (BR)
Default : No
Forced : No

Text #17
ID : 19
Format : UTF-8
Codec ID : S_TEXT/UTF8
Codec ID/Info : UTF-8 Plain Text
Duration : 1 h 37 min
Bit rate : 42 b/s
Frame rate : 0.188 FPS
Count of elements : 1098
Stream size : 30.3 KiB (0%)
Language : Portuguese (PT)
Default : No
Forced : No

Text #18
ID : 20
Format : UTF-8
Codec ID : S_TEXT/UTF8
Codec ID/Info : UTF-8 Plain Text
Duration : 1 h 37 min
Bit rate : 40 b/s
Frame rate : 0.152 FPS
Count of elements : 889
Stream size : 29.1 KiB (0%)
Language : Swedish
Default : No
Forced : No

Text #19
ID : 21
Format : UTF-8
Codec ID : S_TEXT/UTF8
Codec ID/Info : UTF-8 Plain Text
Duration : 1 h 37 min
Bit rate : 42 b/s
Frame rate : 0.184 FPS
Count of elements : 1079
Stream size : 30.2 KiB (0%)
Language : Turkish
Default : No
Forced : No

Menu
01:29:03.000 : en:End Credits

推荐使用qBittorrent、uTorrent、BitComet等下载软件,有条件的推荐115或会员软件下载!

下载地址

游客,如果您要查看本帖隐藏内容请回复






上一篇:无限旅程 [简繁中字] / A Trip to Infinity (2022) 4K高清版本下载
下一篇:妙女郎 [简繁中字] / Funny Girl (1968) 4K高清版本下载
回复

使用道具 举报

0

主题

1

帖子

6

积分

新手上路

Rank: 1

积分
6
发表于 2023-1-3 12:57:13 | 显示全部楼层
666666谢谢分享
回复 支持 反对

使用道具 举报

0

主题

4

帖子

15

积分

新手上路

Rank: 1

积分
15
发表于 2023-1-3 13:45:12 | 显示全部楼层
4rewrqwrqwervqw
回复 支持 反对

使用道具 举报

0

主题

1

帖子

6

积分

新手上路

Rank: 1

积分
6
发表于 2023-1-4 10:25:56 | 显示全部楼层
GOOD!GOOD!
回复

使用道具 举报

0

主题

226

帖子

1016

积分

4K家园VIP

Rank: 9Rank: 9Rank: 9

积分
1016
发表于 2023-1-7 18:52:16 | 显示全部楼层
让 江小白 来看看帖子里藏了啥好东西~~~
回复 支持 反对

使用道具 举报

您需要登录后才可以回帖 登录 | 立即注册

本版积分规则

精彩图文
Archiver|手机版|TAG|Sitemap|新帖|专题|联系我们:邮箱: 4kjia.com@gmail.com   

4k家园   ©2019