[4K电影] 救赎之队:2008美国男篮奥运梦[简繁中字](2020)4K高清版本下载

[复制链接]

主题

帖子

0

积分

超级版主

Rank: 8Rank: 8

积分
0
 楼主| 发表于 2023-1-3 20:32:28 | 显示全部楼层 |阅读模式
本帖最后由 最爱4K哟 于 2023-1-3 20:32 编辑

QQ图片20230103202721_副本.png

◎译  名 救赎之队:2008美国男篮奥运梦/东山再起梦之队/救赎之队
◎片  名 The Redeem Team
◎年  代 2022
◎产  地 美国
◎类  别 纪录片/运动
◎语  言 英语
◎上映日期 2022-10-07(美国网络)
◎IMDb评分 7.4/10 from 7812 users 更新 : 2023-01-03
◎IMDb链接 https://www.imdb.com/title/tt21837726/
◎豆瓣评分 9.0/10 from 4234 users 更新 : 2023-01-03
◎豆瓣链接 https://movie.douban.com/subject/36077772/
◎导  演 乔恩·温巴赫 Jon Weinbach
◎主  演 勒布朗·詹姆斯 LeBron James
       科比·布莱恩特 Kobe Bryant
       德维恩·韦德 Dwyane Wade
       迈克·克日泽夫斯基 Mike Krzyzewski


◎简  介


  《救赎之队:2008 美国男篮奥运梦》收录了前所未有的奥运片段和幕后花絮,讲述了继美国男篮在四年前的雅典奥运会上失利后,重征 2008 年北京奥运会的历程。这部纪录片生动刻画了球队如何培养默契,并对德维恩·韦德、勒布朗·詹姆斯、迈克·克日泽夫斯基(K 教练)等运动员和教练进行了深入访谈,他们回顾了“救赎之队”如何为美国篮球树立了新标准。
Video
ID : 1
Format : HEVC
Format/Info : High Efficiency Video Coding
Format profile : Main 10@L5@Main
HDR format : Dolby Vision, Version 1.0, dvhe.08.07, BL+RPU, HDR10 compatible / SMPTE ST 2086, HDR10 compatible
Codec ID : V_MPEGH/ISO/HEVC
Duration : 1 h 36 min
Bit rate : 11.0 Mb/s
Width : 3 840 pixels
Height : 2 160 pixels
Display aspect ratio : 16:9
Frame rate mode : Constant
Frame rate : 25.000 FPS
Color space : YUV
Chroma subsampling : 4:2:0 (Type 2)
Bit depth : 10 bits
Bits/(Pixel*Frame) : 0.053
Stream size : 7.46 GiB (93%)
Language : English
Default : Yes
Forced : No
Color range : Limited
Color primaries : BT.2020
Transfer characteristics : PQ
Matrix coefficients : BT.2020 non-constant
Mastering display color primaries : Display P3
Mastering display luminance : min: 0.0001 cd/m2, max: 1000 cd/m2
Maximum Content Light Level : 996 cd/m2
Maximum Frame-Average Light Level : 211 cd/m2

Audio
ID : 2
Format : E-AC-3 JOC
Format/Info : Enhanced AC-3 with Joint Object Coding
Commercial name : Dolby Digital Plus with Dolby Atmos
Codec ID : A_EAC3
Duration : 1 h 38 min
Bit rate mode : Constant
Bit rate : 768 kb/s
Channel(s) : 6 channels
Channel layout : L R C LFE Ls Rs
Sampling rate : 48.0 kHz
Frame rate : 31.250 FPS (1536 SPF)
Compression mode : Lossy
Stream size : 539 MiB (7%)
Language : English
Service kind : Complete Main
Default : Yes
Forced : No
Complexity index : 16
Number of dynamic objects : 15
Bed channel count : 1 channel
Bed channel configuration : LFE

Text #1
ID : 3
Format : UTF-8
Codec ID : S_TEXT/UTF8
Codec ID/Info : UTF-8 Plain Text
Duration : 26 min 27 s
Bit rate : 1 b/s
Frame rate : 0.004 FPS
Count of elements : 7
Stream size : 270 Bytes (0%)
Title : Forced
Language : English
Default : Yes
Forced : Yes

Text #2
ID : 4
Format : UTF-8
Codec ID : S_TEXT/UTF8
Codec ID/Info : UTF-8 Plain Text
Duration : 1 h 34 min
Bit rate : 111 b/s
Frame rate : 0.299 FPS
Count of elements : 1690
Stream size : 77.2 KiB (0%)
Language : English
Default : No
Forced : No

Text #3
ID : 5
Format : UTF-8
Codec ID : S_TEXT/UTF8
Codec ID/Info : UTF-8 Plain Text
Duration : 1 h 36 min
Bit rate : 121 b/s
Frame rate : 0.325 FPS
Count of elements : 1878
Stream size : 85.8 KiB (0%)
Title : SDH
Language : English
Default : No
Forced : No

Text #4
ID : 6
Format : UTF-8
Codec ID : S_TEXT/UTF8
Codec ID/Info : UTF-8 Plain Text
Duration : 1 h 34 min
Bit rate : 183 b/s
Frame rate : 0.296 FPS
Count of elements : 1674
Stream size : 127 KiB (0%)
Language : Arabic
Default : No
Forced : No

Text #5
ID : 7
Format : UTF-8
Codec ID : S_TEXT/UTF8
Codec ID/Info : UTF-8 Plain Text
Duration : 1 h 36 min
Bit rate : 98 b/s
Frame rate : 0.284 FPS
Count of elements : 1641
Stream size : 69.2 KiB (0%)
Language : Czech
Default : No
Forced : No

Text #6
ID : 8
Format : UTF-8
Codec ID : S_TEXT/UTF8
Codec ID/Info : UTF-8 Plain Text
Duration : 1 h 36 min
Bit rate : 89 b/s
Frame rate : 0.228 FPS
Count of elements : 1318
Stream size : 63.3 KiB (0%)
Language : Danish
Default : No
Forced : No

Text #7
ID : 9
Format : UTF-8
Codec ID : S_TEXT/UTF8
Codec ID/Info : UTF-8 Plain Text
Duration : 1 h 36 min
Bit rate : 93 b/s
Frame rate : 0.275 FPS
Count of elements : 1587
Stream size : 66.0 KiB (0%)
Language : German
Default : No
Forced : No

Text #8
ID : 10
Format : UTF-8
Codec ID : S_TEXT/UTF8
Codec ID/Info : UTF-8 Plain Text
Duration : 1 h 36 min
Bit rate : 108 b/s
Frame rate : 0.272 FPS
Count of elements : 1572
Stream size : 76.2 KiB (0%)
Language : German
Default : No
Forced : No

Text #9
ID : 11
Format : UTF-8
Codec ID : S_TEXT/UTF8
Codec ID/Info : UTF-8 Plain Text
Duration : 1 h 36 min
Bit rate : 116 b/s
Frame rate : 0.288 FPS
Count of elements : 1666
Stream size : 81.9 KiB (0%)
Title : SDH
Language : German
Default : No
Forced : No

Text #10
ID : 12
Format : UTF-8
Codec ID : S_TEXT/UTF8
Codec ID/Info : UTF-8 Plain Text
Duration : 1 h 36 min
Bit rate : 173 b/s
Frame rate : 0.290 FPS
Count of elements : 1676
Stream size : 123 KiB (0%)
Language : Greek
Default : No
Forced : No

Text #11
ID : 13
Format : UTF-8
Codec ID : S_TEXT/UTF8
Codec ID/Info : UTF-8 Plain Text
Duration : 1 h 34 min
Bit rate : 101 b/s
Frame rate : 0.297 FPS
Count of elements : 1681
Stream size : 70.3 KiB (0%)
Title : Latin American
Language : Spanish (Latin America)
Default : No
Forced : No

Text #12
ID : 14
Format : UTF-8
Codec ID : S_TEXT/UTF8
Codec ID/Info : UTF-8 Plain Text
Duration : 1 h 36 min
Bit rate : 97 b/s
Frame rate : 0.273 FPS
Count of elements : 1576
Stream size : 68.8 KiB (0%)
Title : Latin American
Language : Spanish (Latin America)
Default : No
Forced : No

Text #13
ID : 15
Format : UTF-8
Codec ID : S_TEXT/UTF8
Codec ID/Info : UTF-8 Plain Text
Duration : 1 h 34 min
Bit rate : 109 b/s
Frame rate : 0.315 FPS
Count of elements : 1780
Stream size : 75.9 KiB (0%)
Title : Latin American (SDH)
Language : Spanish (Latin America)
Default : No
Forced : No

Text #14
ID : 16
Format : UTF-8
Codec ID : S_TEXT/UTF8
Codec ID/Info : UTF-8 Plain Text
Duration : 1 h 36 min
Bit rate : 87 b/s
Frame rate : 0.281 FPS
Count of elements : 1624
Stream size : 61.5 KiB (0%)
Language : Spanish (ES)
Default : No
Forced : No

Text #15
ID : 17
Format : UTF-8
Codec ID : S_TEXT/UTF8
Codec ID/Info : UTF-8 Plain Text
Duration : 1 h 36 min
Bit rate : 86 b/s
Frame rate : 0.257 FPS
Count of elements : 1484
Stream size : 60.9 KiB (0%)
Language : Finnish
Default : No
Forced : No

Text #16
ID : 18
Format : UTF-8
Codec ID : S_TEXT/UTF8
Codec ID/Info : UTF-8 Plain Text
Duration : 1 h 36 min
Bit rate : 96 b/s
Frame rate : 0.282 FPS
Count of elements : 1632
Stream size : 68.1 KiB (0%)
Language : fil
Default : No
Forced : No

Text #17
ID : 19
Format : UTF-8
Codec ID : S_TEXT/UTF8
Codec ID/Info : UTF-8 Plain Text
Duration : 1 h 36 min
Bit rate : 97 b/s
Frame rate : 0.286 FPS
Count of elements : 1655
Stream size : 69.1 KiB (0%)
Language : French
Default : No
Forced : No

Text #18
ID : 20
Format : UTF-8
Codec ID : S_TEXT/UTF8
Codec ID/Info : UTF-8 Plain Text
Duration : 1 h 36 min
Bit rate : 155 b/s
Frame rate : 0.277 FPS
Count of elements : 1603
Stream size : 110 KiB (0%)
Language : Hebrew
Default : No
Forced : No

Text #19
ID : 21
Format : UTF-8
Codec ID : S_TEXT/UTF8
Codec ID/Info : UTF-8 Plain Text
Duration : 1 h 36 min
Bit rate : 89 b/s
Frame rate : 0.258 FPS
Count of elements : 1492
Stream size : 63.1 KiB (0%)
Language : Croatian
Default : No
Forced : No

Text #20
ID : 22
Format : UTF-8
Codec ID : S_TEXT/UTF8
Codec ID/Info : UTF-8 Plain Text
Duration : 1 h 36 min
Bit rate : 102 b/s
Frame rate : 0.271 FPS
Count of elements : 1568
Stream size : 72.0 KiB (0%)
Language : Hungarian
Default : No
Forced : No

Text #21
ID : 23
Format : UTF-8
Codec ID : S_TEXT/UTF8
Codec ID/Info : UTF-8 Plain Text
Duration : 1 h 36 min
Bit rate : 94 b/s
Frame rate : 0.271 FPS
Count of elements : 1566
Stream size : 66.8 KiB (0%)
Language : Indonesian
Default : No
Forced : No

Text #22
ID : 24
Format : UTF-8
Codec ID : S_TEXT/UTF8
Codec ID/Info : UTF-8 Plain Text
Duration : 1 h 36 min
Bit rate : 92 b/s
Frame rate : 0.275 FPS
Count of elements : 1592
Stream size : 64.9 KiB (0%)
Language : Italian
Default : No
Forced : No

Text #23
ID : 25
Format : UTF-8
Codec ID : S_TEXT/UTF8
Codec ID/Info : UTF-8 Plain Text
Duration : 1 h 36 min
Bit rate : 123 b/s
Frame rate : 0.312 FPS
Count of elements : 1801
Stream size : 87.4 KiB (0%)
Language : Japanese
Default : No
Forced : No

Text #24
ID : 26
Format : UTF-8
Codec ID : S_TEXT/UTF8
Codec ID/Info : UTF-8 Plain Text
Duration : 1 h 36 min
Bit rate : 121 b/s
Frame rate : 0.302 FPS
Count of elements : 1742
Stream size : 85.5 KiB (0%)
Language : Korean
Default : No
Forced : No

Text #25
ID : 27
Format : UTF-8
Codec ID : S_TEXT/UTF8
Codec ID/Info : UTF-8 Plain Text
Duration : 1 h 36 min
Bit rate : 91 b/s
Frame rate : 0.280 FPS
Count of elements : 1616
Stream size : 64.8 KiB (0%)
Language : Malay
Default : No
Forced : No

Text #26
ID : 28
Format : UTF-8
Codec ID : S_TEXT/UTF8
Codec ID/Info : UTF-8 Plain Text
Duration : 1 h 36 min
Bit rate : 88 b/s
Frame rate : 0.243 FPS
Count of elements : 1402
Stream size : 62.7 KiB (0%)
Language : Norwegian Bokmal
Default : No
Forced : No

Text #27
ID : 29
Format : UTF-8
Codec ID : S_TEXT/UTF8
Codec ID/Info : UTF-8 Plain Text
Duration : 1 h 36 min
Bit rate : 86 b/s
Frame rate : 0.262 FPS
Count of elements : 1515
Stream size : 61.2 KiB (0%)
Language : Dutch
Default : No
Forced : No

Text #28
ID : 30
Format : UTF-8
Codec ID : S_TEXT/UTF8
Codec ID/Info : UTF-8 Plain Text
Duration : 1 h 36 min
Bit rate : 87 b/s
Frame rate : 0.259 FPS
Count of elements : 1496
Stream size : 61.9 KiB (0%)
Language : Polish
Default : No
Forced : No

Text #29
ID : 31
Format : UTF-8
Codec ID : S_TEXT/UTF8
Codec ID/Info : UTF-8 Plain Text
Duration : 1 h 36 min
Bit rate : 97 b/s
Frame rate : 0.290 FPS
Count of elements : 1676
Stream size : 69.0 KiB (0%)
Title : Brazilian
Language : Portuguese (BR)
Default : No
Forced : No

Text #30
ID : 32
Format : UTF-8
Codec ID : S_TEXT/UTF8
Codec ID/Info : UTF-8 Plain Text
Duration : 1 h 36 min
Bit rate : 98 b/s
Frame rate : 0.288 FPS
Count of elements : 1665
Stream size : 69.6 KiB (0%)
Language : Portuguese (PT)
Default : No
Forced : No

Text #31
ID : 33
Format : UTF-8
Codec ID : S_TEXT/UTF8
Codec ID/Info : UTF-8 Plain Text
Duration : 1 h 36 min
Bit rate : 110 b/s
Frame rate : 0.281 FPS
Count of elements : 1623
Stream size : 78.0 KiB (0%)
Language : Romanian
Default : No
Forced : No

Text #32
ID : 34
Format : UTF-8
Codec ID : S_TEXT/UTF8
Codec ID/Info : UTF-8 Plain Text
Duration : 1 h 36 min
Bit rate : 166 b/s
Frame rate : 0.299 FPS
Count of elements : 1727
Stream size : 117 KiB (0%)
Language : Russian
Default : No
Forced : No

Text #33
ID : 35
Format : UTF-8
Codec ID : S_TEXT/UTF8
Codec ID/Info : UTF-8 Plain Text
Duration : 1 h 36 min
Bit rate : 91 b/s
Frame rate : 0.283 FPS
Count of elements : 1635
Stream size : 64.7 KiB (0%)
Language : Swedish
Default : No
Forced : No

Text #34
ID : 36
Format : UTF-8
Codec ID : S_TEXT/UTF8
Codec ID/Info : UTF-8 Plain Text
Duration : 1 h 36 min
Bit rate : 255 b/s
Frame rate : 0.297 FPS
Count of elements : 1713
Stream size : 180 KiB (0%)
Language : Thai
Default : No
Forced : No

Text #35
ID : 37
Format : UTF-8
Codec ID : S_TEXT/UTF8
Codec ID/Info : UTF-8 Plain Text
Duration : 1 h 36 min
Bit rate : 95 b/s
Frame rate : 0.283 FPS
Count of elements : 1637
Stream size : 67.1 KiB (0%)
Language : Turkish
Default : No
Forced : No

Text #36
ID : 38
Format : UTF-8
Codec ID : S_TEXT/UTF8
Codec ID/Info : UTF-8 Plain Text
Duration : 1 h 36 min
Bit rate : 163 b/s
Frame rate : 0.288 FPS
Count of elements : 1667
Stream size : 115 KiB (0%)
Language : Ukrainian
Default : No
Forced : No

Text #37
ID : 39
Format : UTF-8
Codec ID : S_TEXT/UTF8
Codec ID/Info : UTF-8 Plain Text
Duration : 1 h 36 min
Bit rate : 135 b/s
Frame rate : 0.287 FPS
Count of elements : 1659
Stream size : 95.9 KiB (0%)
Language : Vietnamese
Default : No
Forced : No

Text #38
ID : 40
Format : UTF-8
Codec ID : S_TEXT/UTF8
Codec ID/Info : UTF-8 Plain Text
Duration : 1 h 36 min
Bit rate : 84 b/s
Frame rate : 0.290 FPS
Count of elements : 1678
Stream size : 59.9 KiB (0%)
Title : 简体
Language : Chinese (Simplied)

Default : No
Forced : No

Text #39
ID : 41
Format : UTF-8
Codec ID : S_TEXT/UTF8
Codec ID/Info : UTF-8 Plain Text
Duration : 1 h 36 min
Bit rate : 94 b/s
Frame rate : 0.294 FPS
Count of elements : 1699
Stream size : 66.6 KiB (0%)
Title : 繁体
Language : Chinese (Traditional)

Default : No
Forced : No

Menu
01:34:25.000 : en:End Credits

推荐使用qBittorrent、uTorrent、BitComet等下载软件,有条件的推荐115或会员软件下载!

下载地址

游客,如果您要查看本帖隐藏内容请回复

游客,如果您要查看本帖隐藏内容请回复

游客,如果您要查看本帖隐藏内容请回复

游客,如果您要查看本帖隐藏内容请回复







上一篇:双轨人生 [简繁中字] / Look Both Ways (2022) 4K高清版本下载
下一篇:上帝的笔误 / Los renglones torcidos de Dios (2022)4K高清版本下载
回复

使用道具 举报

0

主题

2

帖子

9

积分

4K家园VIP

Rank: 9Rank: 9Rank: 9

积分
9
发表于 6 天前 来自手机 | 显示全部楼层
科比是美国队长
回复 支持 反对

使用道具 举报

您需要登录后才可以回帖 登录 | 立即注册

本版积分规则

精彩图文
Archiver|手机版|TAG|Sitemap|新帖|专题|联系我们:邮箱: 4kjia.com@gmail.com   

4k家园   ©2019