[4K电影] 上帝的笔误 / Los renglones torcidos de Dios (2022)4K高清版本下载

[复制链接]

主题

帖子

0

积分

超级版主

Rank: 8Rank: 8

积分
0
 楼主| 发表于 2023-1-3 20:34:07 | 显示全部楼层 |阅读模式
本帖最后由 最爱4K哟 于 2023-1-3 20:34 编辑

QQ图片20230103202805_副本.png

◎译  名 上帝的笔误/God's Crooked Lines
◎片  名 Los renglones torcidos de Dios
◎年  代 2022
◎产  地 西班牙
◎类  别 悬疑
◎语  言 西班牙语
◎上映日期 2022-10-06(西班牙)
◎IMDb评分 7.0/10 from 8121 users 更新 : 2022-12-30
◎IMDb链接 https://www.imdb.com/title/tt13229894/
◎豆瓣评分 7.4/10 from 2763 users 更新 : 2023-01-03
◎豆瓣链接 https://movie.douban.com/subject/35358584/
◎导  演 奥里奥尔·保罗 Oriol Paulo
◎编  剧 卢卡·德·泰纳 Torcuato Luca de Tena / 奥里奥尔·保罗 Oriol Paulo / 拉拉·森迪姆 Lara Sendim
◎主  演 巴巴拉·莱涅 Bárbara Lennie
       爱德华·费尔南德斯 Eduard Fernández
       洛雷托·莫利昂 Loreto Mauleón
       哈维尔·贝尔特兰 Javier Beltrán
       巴勃罗·德尔基 Pablo Derqui
       费德里科·阿瓜多 Federico Aguado
       阿德尔法·卡尔沃 Adelfa Calvo
       达芬斯·巴尔杜兹 Dafnis Balduz
       大卫·塞尔瓦斯 David Selvas
       路易斯·索莱尔 Lluís Soler
       比森特·贝尔加拉 Vicente Vergara
       Txell Aixendri  Txell Aixendri
       霍安·科洛萨斯 Joan Crosas


◎简  介


  Alice作为私家调查员伪装成偏执病人进入一家精神病医院来收集关于一个内部人员离奇死亡案件的证据。不过她在医院的“疗养”期间所遇到的事情超乎了想象,而她的理智告诉她这一切背后必有文章。一段完全陌生又充满激情的故事即将展现在她面前。本电影改编自Torcuato Luca de Tena同名小说。

◎获奖情况

  第37届西班牙戈雅奖(2023)
  最佳女主角(提名)
  最佳改编剧本(提名)
  最佳艺术指导(提名)
  最佳服装设计(提名)
  最佳化妆与发型(提名)
  最佳原创音乐(提名)
Video
ID : 1
Format : HEVC
Format/Info : High Efficiency Video Coding
Format profile : Main 10@L5@Main
HDR format : Dolby Vision, Version 1.0, dvhe.08.06, BL+RPU, HDR10 compatible / SMPTE ST 2086, HDR10 compatible
Codec ID : V_MPEGH/ISO/HEVC
Duration : 2 h 34 min
Bit rate : 11.8 Mb/s
Width : 3 840 pixels
Height : 2 160 pixels
Display aspect ratio : 16:9
Frame rate mode : Constant
Frame rate : 24.000 FPS
Color space : YUV
Chroma subsampling : 4:2:0 (Type 2)
Bit depth : 10 bits
Bits/(Pixel*Frame) : 0.059
Stream size : 12.8 GiB (95%)
Language : Spanish (ES)
Default : Yes
Forced : No
Color range : Limited
Color primaries : BT.2020
Transfer characteristics : PQ
Matrix coefficients : BT.2020 non-constant
Mastering display color primaries : Display P3
Mastering display luminance : min: 0.0001 cd/m2, max: 1000 cd/m2
Maximum Content Light Level : 840 cd/m2
Maximum Frame-Average Light Level : 97 cd/m2

Audio
ID : 2
Format : E-AC-3
Format/Info : Enhanced AC-3
Commercial name : Dolby Digital Plus
Codec ID : A_EAC3
Duration : 2 h 35 min
Bit rate mode : Constant
Bit rate : 640 kb/s
Channel(s) : 6 channels
Channel layout : L R C LFE Ls Rs
Sampling rate : 48.0 kHz
Frame rate : 31.250 FPS (1536 SPF)
Compression mode : Lossy
Stream size : 711 MiB (5%)
Language : Spanish (ES)
Service kind : Complete Main
Default : Yes
Forced : No

Text #1
ID : 3
Format : UTF-8
Codec ID : S_TEXT/UTF8
Codec ID/Info : UTF-8 Plain Text
Duration : 2 h 26 min
Bit rate : 61 b/s
Frame rate : 0.209 FPS
Count of elements : 1840
Stream size : 65.6 KiB (0%)
Language : Spanish (ES)
Default : No
Forced : No

Text #2
ID : 4
Format : UTF-8
Codec ID : S_TEXT/UTF8
Codec ID/Info : UTF-8 Plain Text
Duration : 2 h 28 min
Bit rate : 69 b/s
Frame rate : 0.244 FPS
Count of elements : 2177
Stream size : 75.3 KiB (0%)
Title : SDH
Language : Spanish (ES)
Default : No
Forced : No

Text #3
ID : 5
Format : UTF-8
Codec ID : S_TEXT/UTF8
Codec ID/Info : UTF-8 Plain Text
Duration : 2 h 27 min
Bit rate : 94 b/s
Frame rate : 0.201 FPS
Count of elements : 1781
Stream size : 103 KiB (0%)
Language : Arabic
Default : No
Forced : No

Text #4
ID : 6
Format : UTF-8
Codec ID : S_TEXT/UTF8
Codec ID/Info : UTF-8 Plain Text
Duration : 2 h 33 min
Bit rate : 48 b/s
Frame rate : 0.184 FPS
Count of elements : 1703
Stream size : 54.9 KiB (0%)
Language : Czech
Default : No
Forced : No

Text #5
ID : 7
Format : UTF-8
Codec ID : S_TEXT/UTF8
Codec ID/Info : UTF-8 Plain Text
Duration : 2 h 33 min
Bit rate : 50 b/s
Frame rate : 0.172 FPS
Count of elements : 1593
Stream size : 57.1 KiB (0%)
Language : Danish
Default : No
Forced : No

Text #6
ID : 8
Format : UTF-8
Codec ID : S_TEXT/UTF8
Codec ID/Info : UTF-8 Plain Text
Duration : 2 h 33 min
Bit rate : 87 b/s
Frame rate : 0.188 FPS
Count of elements : 1731
Stream size : 97.7 KiB (0%)
Language : Greek
Default : No
Forced : No

Text #7
ID : 9
Format : UTF-8
Codec ID : S_TEXT/UTF8
Codec ID/Info : UTF-8 Plain Text
Duration : 2 h 33 min
Bit rate : 53 b/s
Frame rate : 0.189 FPS
Count of elements : 1735
Stream size : 60.5 KiB (0%)
Language : English
Default : No
Forced : No

Text #8
ID : 10
Format : UTF-8
Codec ID : S_TEXT/UTF8
Codec ID/Info : UTF-8 Plain Text
Duration : 2 h 34 min
Bit rate : 77 b/s
Frame rate : 0.274 FPS
Count of elements : 2536
Stream size : 87.8 KiB (0%)
Title : SDH
Language : English
Default : No
Forced : No

Text #9
ID : 11
Format : UTF-8
Codec ID : S_TEXT/UTF8
Codec ID/Info : UTF-8 Plain Text
Duration : 2 h 33 min
Bit rate : 51 b/s
Frame rate : 0.169 FPS
Count of elements : 1559
Stream size : 57.8 KiB (0%)
Language : Finnish
Default : No
Forced : No

Text #10
ID : 12
Format : UTF-8
Codec ID : S_TEXT/UTF8
Codec ID/Info : UTF-8 Plain Text
Duration : 2 h 33 min
Bit rate : 49 b/s
Frame rate : 0.188 FPS
Count of elements : 1741
Stream size : 55.5 KiB (0%)
Language : fil
Default : No
Forced : No

Text #11
ID : 13
Format : UTF-8
Codec ID : S_TEXT/UTF8
Codec ID/Info : UTF-8 Plain Text
Duration : 2 h 33 min
Bit rate : 48 b/s
Frame rate : 0.181 FPS
Count of elements : 1673
Stream size : 55.0 KiB (0%)
Language : French
Default : No
Forced : No

Text #12
ID : 14
Format : UTF-8
Codec ID : S_TEXT/UTF8
Codec ID/Info : UTF-8 Plain Text
Duration : 2 h 33 min
Bit rate : 79 b/s
Frame rate : 0.194 FPS
Count of elements : 1788
Stream size : 89.7 KiB (0%)
Language : Hebrew
Default : No
Forced : No

Text #13
ID : 15
Format : UTF-8
Codec ID : S_TEXT/UTF8
Codec ID/Info : UTF-8 Plain Text
Duration : 2 h 33 min
Bit rate : 45 b/s
Frame rate : 0.178 FPS
Count of elements : 1648
Stream size : 51.4 KiB (0%)
Language : Croatian
Default : No
Forced : No

Text #14
ID : 16
Format : UTF-8
Codec ID : S_TEXT/UTF8
Codec ID/Info : UTF-8 Plain Text
Duration : 2 h 33 min
Bit rate : 51 b/s
Frame rate : 0.186 FPS
Count of elements : 1719
Stream size : 58.5 KiB (0%)
Language : Hungarian
Default : No
Forced : No

Text #15
ID : 17
Format : UTF-8
Codec ID : S_TEXT/UTF8
Codec ID/Info : UTF-8 Plain Text
Duration : 2 h 33 min
Bit rate : 50 b/s
Frame rate : 0.186 FPS
Count of elements : 1714
Stream size : 56.6 KiB (0%)
Language : Indonesian
Default : No
Forced : No

Text #16
ID : 18
Format : UTF-8
Codec ID : S_TEXT/UTF8
Codec ID/Info : UTF-8 Plain Text
Duration : 2 h 33 min
Bit rate : 52 b/s
Frame rate : 0.191 FPS
Count of elements : 1755
Stream size : 58.7 KiB (0%)
Language : Italian
Default : No
Forced : No

Text #17
ID : 19
Format : UTF-8
Codec ID : S_TEXT/UTF8
Codec ID/Info : UTF-8 Plain Text
Duration : 2 h 33 min
Bit rate : 49 b/s
Frame rate : 0.200 FPS
Count of elements : 1838
Stream size : 55.7 KiB (0%)
Language : Japanese
Default : No
Forced : No

Text #18
ID : 20
Format : UTF-8
Codec ID : S_TEXT/UTF8
Codec ID/Info : UTF-8 Plain Text
Duration : 2 h 34 min
Bit rate : 68 b/s
Frame rate : 0.198 FPS
Count of elements : 1832
Stream size : 77.4 KiB (0%)
Language : Korean
Default : No
Forced : No

Text #19
ID : 21
Format : UTF-8
Codec ID : S_TEXT/UTF8
Codec ID/Info : UTF-8 Plain Text
Duration : 2 h 33 min
Bit rate : 51 b/s
Frame rate : 0.182 FPS
Count of elements : 1681
Stream size : 58.3 KiB (0%)
Language : Malay
Default : No
Forced : No

Text #20
ID : 22
Format : UTF-8
Codec ID : S_TEXT/UTF8
Codec ID/Info : UTF-8 Plain Text
Duration : 2 h 27 min
Bit rate : 51 b/s
Frame rate : 0.193 FPS
Count of elements : 1710
Stream size : 56.0 KiB (0%)
Language : Norwegian Bokmal
Default : No
Forced : No

Text #21
ID : 23
Format : UTF-8
Codec ID : S_TEXT/UTF8
Codec ID/Info : UTF-8 Plain Text
Duration : 2 h 33 min
Bit rate : 51 b/s
Frame rate : 0.179 FPS
Count of elements : 1658
Stream size : 58.2 KiB (0%)
Language : Dutch
Default : No
Forced : No

Text #22
ID : 24
Format : UTF-8
Codec ID : S_TEXT/UTF8
Codec ID/Info : UTF-8 Plain Text
Duration : 2 h 33 min
Bit rate : 46 b/s
Frame rate : 0.189 FPS
Count of elements : 1734
Stream size : 52.2 KiB (0%)
Language : Polish
Default : No
Forced : No

Text #23
ID : 25
Format : UTF-8
Codec ID : S_TEXT/UTF8
Codec ID/Info : UTF-8 Plain Text
Duration : 2 h 33 min
Bit rate : 51 b/s
Frame rate : 0.192 FPS
Count of elements : 1776
Stream size : 58.5 KiB (0%)
Title : Brazilian
Language : Portuguese (BR)
Default : No
Forced : No

Text #24
ID : 26
Format : UTF-8
Codec ID : S_TEXT/UTF8
Codec ID/Info : UTF-8 Plain Text
Duration : 2 h 33 min
Bit rate : 51 b/s
Frame rate : 0.190 FPS
Count of elements : 1753
Stream size : 58.0 KiB (0%)
Language : Portuguese (PT)
Default : No
Forced : No

Text #25
ID : 27
Format : UTF-8
Codec ID : S_TEXT/UTF8
Codec ID/Info : UTF-8 Plain Text
Duration : 2 h 33 min
Bit rate : 57 b/s
Frame rate : 0.192 FPS
Count of elements : 1770
Stream size : 65.1 KiB (0%)
Language : Romanian
Default : No
Forced : No

Text #26
ID : 28
Format : UTF-8
Codec ID : S_TEXT/UTF8
Codec ID/Info : UTF-8 Plain Text
Duration : 2 h 33 min
Bit rate : 81 b/s
Frame rate : 0.190 FPS
Count of elements : 1744
Stream size : 91.9 KiB (0%)
Language : Russian
Default : No
Forced : No

Text #27
ID : 29
Format : UTF-8
Codec ID : S_TEXT/UTF8
Codec ID/Info : UTF-8 Plain Text
Duration : 2 h 33 min
Bit rate : 49 b/s
Frame rate : 0.172 FPS
Count of elements : 1587
Stream size : 56.3 KiB (0%)
Language : Swedish
Default : No
Forced : No

Text #28
ID : 30
Format : UTF-8
Codec ID : S_TEXT/UTF8
Codec ID/Info : UTF-8 Plain Text
Duration : 2 h 33 min
Bit rate : 139 b/s
Frame rate : 0.193 FPS
Count of elements : 1787
Stream size : 158 KiB (0%)
Language : Thai
Default : No
Forced : No

Text #29
ID : 31
Format : UTF-8
Codec ID : S_TEXT/UTF8
Codec ID/Info : UTF-8 Plain Text
Duration : 2 h 33 min
Bit rate : 51 b/s
Frame rate : 0.182 FPS
Count of elements : 1680
Stream size : 58.3 KiB (0%)
Language : Turkish
Default : No
Forced : No

Text #30
ID : 32
Format : UTF-8
Codec ID : S_TEXT/UTF8
Codec ID/Info : UTF-8 Plain Text
Duration : 2 h 33 min
Bit rate : 83 b/s
Frame rate : 0.176 FPS
Count of elements : 1629
Stream size : 93.8 KiB (0%)
Language : Ukrainian
Default : No
Forced : No

Text #31
ID : 33
Format : UTF-8
Codec ID : S_TEXT/UTF8
Codec ID/Info : UTF-8 Plain Text
Duration : 2 h 33 min
Bit rate : 73 b/s
Frame rate : 0.175 FPS
Count of elements : 1613
Stream size : 82.8 KiB (0%)
Language : Vietnamese
Default : No
Forced : No

Menu
02:28:40.000 : en:End Credits

推荐使用qBittorrent、uTorrent、BitComet等下载软件,有条件的推荐115或会员软件下载!

下载地址

游客,如果您要查看本帖隐藏内容请回复

游客,如果您要查看本帖隐藏内容请回复

游客,如果您要查看本帖隐藏内容请回复

游客,如果您要查看本帖隐藏内容请回复









上一篇:救赎之队:2008美国男篮奥运梦[简繁中字](2020)4K高清版本下载
下一篇:初识与告别之间 [简繁中字] (2022) 4K高清版本下载
回复

使用道具 举报

0

主题

1

帖子

6

积分

新手上路

Rank: 1

积分
6
发表于 昨天 00:20 | 显示全部楼层
xiexiefenxiang
回复 支持 反对

使用道具 举报

您需要登录后才可以回帖 登录 | 立即注册

本版积分规则

精彩图文
Archiver|手机版|TAG|Sitemap|新帖|专题|联系我们:邮箱: 4kjia.com@gmail.com   

4k家园   ©2019