[4K电影] 终极拦截 [简繁中字] / Interceptor‎ (2022) 4K高清版本下载

[复制链接]

主题

帖子

0

积分

超级版主

Rank: 8Rank: 8

积分
0
 楼主| 发表于 2023-1-3 20:39:13 | 显示全部楼层 |阅读模式
本帖最后由 最爱4K哟 于 2023-1-4 12:59 编辑

QQ图片20230103203153_副本.png

◎译  名 终极拦截/终极拦截战(港/台)
◎片  名 Interceptor
◎年  代 2022
◎产  地 澳大利亚/美国
◎类  别 动作
◎语  言 英语
◎上映日期 2022-06-03(美国网络)
◎IMDb评分 4.6/10 from 23942 users 更新 : 2022-12-30
◎IMDb链接 https://www.imdb.com/title/tt14174940/
◎豆瓣评分 4.9/10 from 2179 users 更新 : 2023-01-03
◎豆瓣链接 https://movie.douban.com/subject/35389123/
◎导  演 马修·赖利 Matthew Reilly
◎编  剧 马修·赖利 Matthew Reilly / 斯图尔特·贝亚蒂耶 Stuart Beattie
◎主  演 埃尔莎·帕塔奇 Elsa Pataky
       卢克·布雷西 Luke Bracey
       亚伦·格伦尼 Aaron Glenane
       Zoe Carides Zoe Carides
       瑞斯·穆尔东 Rhys Muldoon
       蒂姆·王 Tim Wong
       史蒂夫·莫里斯 Steve Morris
       史蒂文·A·戴维斯 Steven A. Davis
       克里斯·海姆斯沃斯 Chris Hemsworth


◎简  介


  刚毅的杰洁·柯林斯上尉(埃尔莎·帕塔奇饰)经历了残酷的现实,在被迫调离五角大楼的梦想岗位后,被派遣负责太平洋中部一个孤立的核导弹拦截基地。当联合进攻同时威胁到基地本身时,柯林斯与蛊惑人心的亚历山大·凯塞尔(卢克·布雷西饰)狭路相逢,凯塞尔是一名前美国军事情报官员,意图实施一项难以想象的计划。时间仅剩下几分钟,柯林斯必须利用她多年的战术训练和军事专业知识来决定她可以信任谁,并阻止凯塞尔和他的秘密雇佣兵完成其扭曲且可怕的任务。                                                                        《终极拦截》由马修·赖利执导,马修·赖利和斯图尔特·贝亚蒂耶共同担任编剧。迈克尔·布恩担任制片人,监制团队包括马修·斯特里特、斯图尔特·贝亚蒂耶、克里斯·海姆斯沃斯、克里斯托弗·马普、罗伯特·斯拉维耶罗、凯茜·摩根和彼得·D·格雷夫斯。主演阵容包括亚伦·格伦尼、梅恩·梅塔、瑞斯·穆尔东、贝琳达·琼卜维、马库斯·约翰逊、科林·弗瑞尔斯和佐耶·卡里兹。
Video
ID : 1
Format : HEVC
Format/Info : High Efficiency Video Coding
Format profile : Main 10@L5@Main
HDR format : Dolby Vision, Version 1.0, dvhe.08.06, BL+RPU, HDR10 compatible / SMPTE ST 2086, HDR10 compatible
Codec ID : V_MPEGH/ISO/HEVC
Duration : 1 h 36 min
Bit rate : 14.9 Mb/s
Width : 3 840 pixels
Height : 2 160 pixels
Display aspect ratio : 16:9
Frame rate mode : Constant
Frame rate : 24.000 FPS
Color space : YUV
Chroma subsampling : 4:2:0 (Type 2)
Bit depth : 10 bits
Bits/(Pixel*Frame) : 0.075
Stream size : 10.1 GiB (95%)
Language : English
Default : Yes
Forced : No
Color range : Limited
Color primaries : BT.2020
Transfer characteristics : PQ
Matrix coefficients : BT.2020 non-constant
Mastering display color primaries : Display P3
Mastering display luminance : min: 0.0001 cd/m2, max: 1000 cd/m2
Maximum Content Light Level : 1382 cd/m2
Maximum Frame-Average Light Level : 385 cd/m2

Audio
ID : 2
Format : E-AC-3 JOC
Format/Info : Enhanced AC-3 with Joint Object Coding
Commercial name : Dolby Digital Plus with Dolby Atmos
Codec ID : A_EAC3
Duration : 1 h 38 min
Bit rate mode : Constant
Bit rate : 768 kb/s
Channel(s) : 6 channels
Channel layout : L R C LFE Ls Rs
Sampling rate : 48.0 kHz
Frame rate : 31.250 FPS (1536 SPF)
Compression mode : Lossy
Stream size : 542 MiB (5%)
Language : English
Service kind : Complete Main
Default : Yes
Forced : No
Complexity index : 16
Number of dynamic objects : 15
Bed channel count : 1 channel
Bed channel configuration : LFE

Text #1
ID : 3
Format : UTF-8
Codec ID : S_TEXT/UTF8
Codec ID/Info : UTF-8 Plain Text
Duration : 1 h 16 min
Bit rate : 0 b/s
Frame rate : 0.002 FPS
Count of elements : 7
Stream size : 294 Bytes (0%)
Title : Forced
Language : English
Default : Yes
Forced : Yes

Text #2
ID : 4
Format : UTF-8
Codec ID : S_TEXT/UTF8
Codec ID/Info : UTF-8 Plain Text
Duration : 1 h 29 min
Bit rate : 54 b/s
Frame rate : 0.200 FPS
Count of elements : 1078
Stream size : 35.5 KiB (0%)
Language : English
Default : No
Forced : No

Text #3
ID : 5
Format : UTF-8
Codec ID : S_TEXT/UTF8
Codec ID/Info : UTF-8 Plain Text
Duration : 1 h 32 min
Bit rate : 66 b/s
Frame rate : 0.292 FPS
Count of elements : 1617
Stream size : 45.0 KiB (0%)
Title : SDH
Language : English
Default : No
Forced : No

Text #4
ID : 6
Format : UTF-8
Codec ID : S_TEXT/UTF8
Codec ID/Info : UTF-8 Plain Text
Duration : 1 h 36 min
Bit rate : 82 b/s
Frame rate : 0.192 FPS
Count of elements : 1112
Stream size : 58.2 KiB (0%)
Language : Arabic
Default : No
Forced : No

Text #5
ID : 7
Format : UTF-8
Codec ID : S_TEXT/UTF8
Codec ID/Info : UTF-8 Plain Text
Duration : 1 h 36 min
Bit rate : 46 b/s
Frame rate : 0.167 FPS
Count of elements : 964
Stream size : 33.0 KiB (0%)
Language : Catalan
Default : No
Forced : No

Text #6
ID : 8
Format : UTF-8
Codec ID : S_TEXT/UTF8
Codec ID/Info : UTF-8 Plain Text
Duration : 1 h 36 min
Bit rate : 48 b/s
Frame rate : 0.190 FPS
Count of elements : 1100
Stream size : 34.3 KiB (0%)
Language : Czech
Default : No
Forced : No

Text #7
ID : 9
Format : UTF-8
Codec ID : S_TEXT/UTF8
Codec ID/Info : UTF-8 Plain Text
Duration : 1 h 36 min
Bit rate : 48 b/s
Frame rate : 0.175 FPS
Count of elements : 1011
Stream size : 33.9 KiB (0%)
Language : Danish
Default : No
Forced : No

Text #8
ID : 10
Format : UTF-8
Codec ID : S_TEXT/UTF8
Codec ID/Info : UTF-8 Plain Text
Duration : 1 h 36 min
Bit rate : 50 b/s
Frame rate : 0.177 FPS
Count of elements : 1021
Stream size : 35.4 KiB (0%)
Language : German
Default : No
Forced : No

Text #9
ID : 11
Format : UTF-8
Codec ID : S_TEXT/UTF8
Codec ID/Info : UTF-8 Plain Text
Duration : 1 h 36 min
Bit rate : 82 b/s
Frame rate : 0.191 FPS
Count of elements : 1105
Stream size : 58.2 KiB (0%)
Language : Greek
Default : No
Forced : No

Text #10
ID : 12
Format : UTF-8
Codec ID : S_TEXT/UTF8
Codec ID/Info : UTF-8 Plain Text
Duration : 1 h 30 min
Bit rate : 57 b/s
Frame rate : 0.209 FPS
Count of elements : 1129
Stream size : 38.0 KiB (0%)
Title : Latin American
Language : Spanish (Latin America)
Default : No
Forced : No

Text #11
ID : 13
Format : UTF-8
Codec ID : S_TEXT/UTF8
Codec ID/Info : UTF-8 Plain Text
Duration : 1 h 36 min
Bit rate : 47 b/s
Frame rate : 0.195 FPS
Count of elements : 1127
Stream size : 33.7 KiB (0%)
Title : Latin American
Language : Spanish (Latin America)
Default : No
Forced : No

Text #12
ID : 14
Format : UTF-8
Codec ID : S_TEXT/UTF8
Codec ID/Info : UTF-8 Plain Text
Duration : 1 h 36 min
Bit rate : 45 b/s
Frame rate : 0.183 FPS
Count of elements : 1056
Stream size : 32.3 KiB (0%)
Language : Spanish (ES)
Default : No
Forced : No

Text #13
ID : 15
Format : UTF-8
Codec ID : S_TEXT/UTF8
Codec ID/Info : UTF-8 Plain Text
Duration : 1 h 36 min
Bit rate : 46 b/s
Frame rate : 0.192 FPS
Count of elements : 1110
Stream size : 32.8 KiB (0%)
Language : Basque
Default : No
Forced : No

Text #14
ID : 16
Format : UTF-8
Codec ID : S_TEXT/UTF8
Codec ID/Info : UTF-8 Plain Text
Duration : 1 h 36 min
Bit rate : 42 b/s
Frame rate : 0.159 FPS
Count of elements : 920
Stream size : 29.7 KiB (0%)
Language : Finnish
Default : No
Forced : No

Text #15
ID : 17
Format : UTF-8
Codec ID : S_TEXT/UTF8
Codec ID/Info : UTF-8 Plain Text
Duration : 1 h 36 min
Bit rate : 51 b/s
Frame rate : 0.188 FPS
Count of elements : 1084
Stream size : 36.3 KiB (0%)
Language : fil
Default : No
Forced : No

Text #16
ID : 18
Format : UTF-8
Codec ID : S_TEXT/UTF8
Codec ID/Info : UTF-8 Plain Text
Duration : 1 h 36 min
Bit rate : 48 b/s
Frame rate : 0.173 FPS
Count of elements : 1002
Stream size : 34.1 KiB (0%)
Language : French
Default : No
Forced : No

Text #17
ID : 19
Format : UTF-8
Codec ID : S_TEXT/UTF8
Codec ID/Info : UTF-8 Plain Text
Duration : 1 h 36 min
Bit rate : 46 b/s
Frame rate : 0.192 FPS
Count of elements : 1112
Stream size : 32.6 KiB (0%)
Language : Galician
Default : No
Forced : No

Text #18
ID : 20
Format : UTF-8
Codec ID : S_TEXT/UTF8
Codec ID/Info : UTF-8 Plain Text
Duration : 1 h 36 min
Bit rate : 77 b/s
Frame rate : 0.183 FPS
Count of elements : 1060
Stream size : 54.4 KiB (0%)
Language : Hebrew
Default : No
Forced : No

Text #19
ID : 21
Format : UTF-8
Codec ID : S_TEXT/UTF8
Codec ID/Info : UTF-8 Plain Text
Duration : 1 h 36 min
Bit rate : 44 b/s
Frame rate : 0.182 FPS
Count of elements : 1050
Stream size : 31.4 KiB (0%)
Language : Croatian
Default : No
Forced : No

Text #20
ID : 22
Format : UTF-8
Codec ID : S_TEXT/UTF8
Codec ID/Info : UTF-8 Plain Text
Duration : 1 h 36 min
Bit rate : 49 b/s
Frame rate : 0.185 FPS
Count of elements : 1071
Stream size : 34.9 KiB (0%)
Language : Hungarian
Default : No
Forced : No

Text #21
ID : 23
Format : UTF-8
Codec ID : S_TEXT/UTF8
Codec ID/Info : UTF-8 Plain Text
Duration : 1 h 36 min
Bit rate : 50 b/s
Frame rate : 0.188 FPS
Count of elements : 1088
Stream size : 35.3 KiB (0%)
Language : Indonesian
Default : No
Forced : No

Text #22
ID : 24
Format : UTF-8
Codec ID : S_TEXT/UTF8
Codec ID/Info : UTF-8 Plain Text
Duration : 1 h 36 min
Bit rate : 47 b/s
Frame rate : 0.184 FPS
Count of elements : 1062
Stream size : 33.2 KiB (0%)
Language : Italian
Default : No
Forced : No

Text #23
ID : 25
Format : UTF-8
Codec ID : S_TEXT/UTF8
Codec ID/Info : UTF-8 Plain Text
Duration : 1 h 36 min
Bit rate : 45 b/s
Frame rate : 0.190 FPS
Count of elements : 1101
Stream size : 32.3 KiB (0%)
Language : Japanese
Default : No
Forced : No

Text #24
ID : 26
Format : UTF-8
Codec ID : S_TEXT/UTF8
Codec ID/Info : UTF-8 Plain Text
Duration : 1 h 36 min
Bit rate : 57 b/s
Frame rate : 0.193 FPS
Count of elements : 1114
Stream size : 40.6 KiB (0%)
Language : Korean
Default : No
Forced : No

Text #25
ID : 27
Format : UTF-8
Codec ID : S_TEXT/UTF8
Codec ID/Info : UTF-8 Plain Text
Duration : 1 h 36 min
Bit rate : 48 b/s
Frame rate : 0.190 FPS
Count of elements : 1098
Stream size : 33.8 KiB (0%)
Language : Malay
Default : No
Forced : No

Text #26
ID : 28
Format : UTF-8
Codec ID : S_TEXT/UTF8
Codec ID/Info : UTF-8 Plain Text
Duration : 1 h 36 min
Bit rate : 44 b/s
Frame rate : 0.175 FPS
Count of elements : 1009
Stream size : 31.4 KiB (0%)
Language : Norwegian Bokmal
Default : No
Forced : No

Text #27
ID : 29
Format : UTF-8
Codec ID : S_TEXT/UTF8
Codec ID/Info : UTF-8 Plain Text
Duration : 1 h 36 min
Bit rate : 42 b/s
Frame rate : 0.167 FPS
Count of elements : 968
Stream size : 30.3 KiB (0%)
Language : Dutch
Default : No
Forced : No

Text #28
ID : 30
Format : UTF-8
Codec ID : S_TEXT/UTF8
Codec ID/Info : UTF-8 Plain Text
Duration : 1 h 36 min
Bit rate : 43 b/s
Frame rate : 0.184 FPS
Count of elements : 1061
Stream size : 30.6 KiB (0%)
Language : Polish
Default : No
Forced : No

Text #29
ID : 31
Format : UTF-8
Codec ID : S_TEXT/UTF8
Codec ID/Info : UTF-8 Plain Text
Duration : 1 h 30 min
Bit rate : 58 b/s
Frame rate : 0.196 FPS
Count of elements : 1060
Stream size : 38.4 KiB (0%)
Title : Brazilian
Language : Portuguese (BR)
Default : No
Forced : No

Text #30
ID : 32
Format : UTF-8
Codec ID : S_TEXT/UTF8
Codec ID/Info : UTF-8 Plain Text
Duration : 1 h 36 min
Bit rate : 49 b/s
Frame rate : 0.191 FPS
Count of elements : 1104
Stream size : 35.2 KiB (0%)
Title : Brazilian
Language : Portuguese (BR)
Default : No
Forced : No

Text #31
ID : 33
Format : UTF-8
Codec ID : S_TEXT/UTF8
Codec ID/Info : UTF-8 Plain Text
Duration : 1 h 36 min
Bit rate : 50 b/s
Frame rate : 0.190 FPS
Count of elements : 1099
Stream size : 35.5 KiB (0%)
Language : Portuguese (PT)
Default : No
Forced : No

Text #32
ID : 34
Format : UTF-8
Codec ID : S_TEXT/UTF8
Codec ID/Info : UTF-8 Plain Text
Duration : 1 h 30 min
Bit rate : 56 b/s
Frame rate : 0.176 FPS
Count of elements : 952
Stream size : 37.0 KiB (0%)
Language : Romanian
Default : No
Forced : No

Text #33
ID : 35
Format : UTF-8
Codec ID : S_TEXT/UTF8
Codec ID/Info : UTF-8 Plain Text
Duration : 1 h 36 min
Bit rate : 76 b/s
Frame rate : 0.187 FPS
Count of elements : 1081
Stream size : 54.2 KiB (0%)
Language : Russian
Default : No
Forced : No

Text #34
ID : 36
Format : UTF-8
Codec ID : S_TEXT/UTF8
Codec ID/Info : UTF-8 Plain Text
Duration : 1 h 36 min
Bit rate : 48 b/s
Frame rate : 0.159 FPS
Count of elements : 917
Stream size : 34.4 KiB (0%)
Language : Swedish
Default : No
Forced : No

Text #35
ID : 37
Format : UTF-8
Codec ID : S_TEXT/UTF8
Codec ID/Info : UTF-8 Plain Text
Duration : 1 h 36 min
Bit rate : 128 b/s
Frame rate : 0.192 FPS
Count of elements : 1110
Stream size : 90.9 KiB (0%)
Language : Thai
Default : No
Forced : No

Text #36
ID : 38
Format : UTF-8
Codec ID : S_TEXT/UTF8
Codec ID/Info : UTF-8 Plain Text
Duration : 1 h 36 min
Bit rate : 49 b/s
Frame rate : 0.154 FPS
Count of elements : 888
Stream size : 35.0 KiB (0%)
Language : Turkish
Default : No
Forced : No

Text #37
ID : 39
Format : UTF-8
Codec ID : S_TEXT/UTF8
Codec ID/Info : UTF-8 Plain Text
Duration : 1 h 36 min
Bit rate : 78 b/s
Frame rate : 0.186 FPS
Count of elements : 1074
Stream size : 55.6 KiB (0%)
Language : Ukrainian
Default : No
Forced : No

Text #38
ID : 40
Format : UTF-8
Codec ID : S_TEXT/UTF8
Codec ID/Info : UTF-8 Plain Text
Duration : 1 h 36 min
Bit rate : 68 b/s
Frame rate : 0.186 FPS
Count of elements : 1076
Stream size : 48.4 KiB (0%)
Language : Vietnamese
Default : No
Forced : No

Text #39
ID : 41
Format : UTF-8
Codec ID : S_TEXT/UTF8
Codec ID/Info : UTF-8 Plain Text
Duration : 1 h 36 min
Bit rate : 49 b/s
Frame rate : 0.192 FPS
Count of elements : 1112
Stream size : 35.2 KiB (0%)
Title : 简体
Language : Chinese (Simplied)

Default : No
Forced : No

Text #40
ID : 42
Format : UTF-8
Codec ID : S_TEXT/UTF8
Codec ID/Info : UTF-8 Plain Text
Duration : 1 h 36 min
Bit rate : 48 b/s
Frame rate : 0.200 FPS
Count of elements : 1156
Stream size : 34.1 KiB (0%)
Title : 繁体
Language : Chinese (Traditional)

Default : No
Forced : No

Menu
01:32:32.000 : en:End Credits

推荐使用qBittorrent、uTorrent、BitComet等下载软件,有条件的推荐115或会员软件下载!

下载地址

游客,如果您要查看本帖隐藏内容请回复

游客,如果您要查看本帖隐藏内容请回复

游客,如果您要查看本帖隐藏内容请回复

游客,如果您要查看本帖隐藏内容请回复





上一篇:初识与告别之间 [简繁中字] (2022) 4K高清版本下载
下一篇:思维笼 / Mindcage‎ (2022) 4K高清版本下载
回复

使用道具 举报

您需要登录后才可以回帖 登录 | 立即注册

本版积分规则

精彩图文
Archiver|手机版|TAG|Sitemap|新帖|专题|联系我们:邮箱: 4kjia.com@gmail.com   

4k家园   ©2019