[4K电影] 多莉·帕顿:广场上的圣诞节 [简繁中字] (2020) 4K高清版本下载

[复制链接]

主题

帖子

0

积分

超级版主

Rank: 8Rank: 8

积分
0
 楼主| 发表于 2023-1-3 22:41:44 | 显示全部楼层 |阅读模式
本帖最后由 最爱4K哟 于 2023-1-3 22:41 编辑

QQ图片20230103222641_副本.png

◎译  名 多莉·帕顿:广场上的圣诞节/多莉·帕顿:小镇圣诞爱/Christmas on the Square
◎片  名 Dolly Parton's Christmas on The Square
◎年  代 2020
◎产  地 美国
◎类  别 喜剧/音乐/歌舞
◎语  言 英语
◎上映日期 2020-11-22(美国)
◎IMDb评分 5.2/10 from 2864 users 更新 : 2023-01-02
◎IMDb链接 https://www.imdb.com/title/tt10627548/
◎豆瓣评分 6.1/10 from 106 users 更新 : 2023-01-03
◎豆瓣链接 https://movie.douban.com/subject/34607622/
◎导  演 黛比·艾伦 Debbie Allen
◎主  演 多莉·帕顿 Dolly Parton
       克里斯汀·芭伦斯基 Christine Baranski
       特里特·威廉斯 Treat Williams
       詹妮弗·路易斯 Jenifer Lewis
       乔什·塞加拉 Josh Segarra
       珍妮·梅森 Jeanine Mason
       道格拉斯·斯利斯 Douglas Sills
       黄景伟 Alex Wong
       Carol Swarbrick Carol Swarbrick
       斯蒂芬·卡迪尔 Stephen Caudill


◎简  介


  观赏这部穿插 14 首 #桃莉·巴顿原创歌曲的 Netflix 佳节音乐片,享受冬青树摇曳的 #2020 圣诞节。                                                                        《小镇圣诞爱》描述闪闪发光的天使(桃莉)找上小镇裡的「吝啬鬼」雷吉娜·富勒(克莉丝汀·巴伦斯基饰),引领她展开一趟乐音缭绕的救赎之旅。吝啬的地主会在圣诞夜把富勒镇的居民通通逐出家门,还是圣诞精神终究会融化她的贪婪慾望呢?                                                                        本片由知名编舞家 #黛比·艾伦执导,桃莉的 #圣诞音乐将打动你的心,陪伴每个家庭欢度佳节。这部引人入胜的音乐片由桃莉·巴顿、克莉丝汀·巴伦斯基、崔特·威廉斯、吉妮·梅森、乔许·塞嘉拉、玛莉·莲恩·哈斯凯尔,以及众多才华洋溢的明星主演。你准备好了吗?载歌载舞的季节已然来到!

◎获奖情况

  第73届黄金时段艾美奖(2021)
  迷你剧/电视电影 最佳电视电影

  第32届美国制片人工会奖(2021)
  最佳流媒体电影/电视电影制片人奖(提名)
Video
ID : 1
Format : HEVC
Format/Info : High Efficiency Video Coding
Format profile : Main 10@L5@Main
HDR format : Dolby Vision, Version 1.0, dvhe.08.06, BL+RPU, HDR10 compatible / SMPTE ST 2086, HDR10 compatible
Codec ID : V_MPEGH/ISO/HEVC
Duration : 1 h 38 min
Bit rate : 15.9 Mb/s
Width : 3 840 pixels
Height : 2 160 pixels
Display aspect ratio : 16:9
Frame rate mode : Constant
Frame rate : 23.976 (24000/1001) FPS
Color space : YUV
Chroma subsampling : 4:2:0 (Type 2)
Bit depth : 10 bits
Bits/(Pixel*Frame) : 0.080
Stream size : 11.0 GiB (96%)
Language : English
Default : Yes
Forced : No
Color range : Limited
Color primaries : BT.2020
Transfer characteristics : PQ
Matrix coefficients : BT.2020 non-constant
Mastering display color primaries : Display P3
Mastering display luminance : min: 0.0050 cd/m2, max: 4000 cd/m2
Maximum Content Light Level : 6111 cd/m2
Maximum Frame-Average Light Level : 1586 cd/m2

Audio
ID : 2
Format : E-AC-3
Format/Info : Enhanced AC-3
Commercial name : Dolby Digital Plus
Codec ID : A_EAC3
Duration : 1 h 38 min
Bit rate mode : Constant
Bit rate : 640 kb/s
Channel(s) : 6 channels
Channel layout : L R C LFE Ls Rs
Sampling rate : 48.0 kHz
Frame rate : 31.250 FPS (1536 SPF)
Compression mode : Lossy
Stream size : 453 MiB (4%)
Language : English
Service kind : Complete Main
Default : Yes
Forced : No

Text #1
ID : 3
Format : UTF-8
Codec ID : S_TEXT/UTF8
Codec ID/Info : UTF-8 Plain Text
Duration : 1 h 32 min
Bit rate : 45 b/s
Frame rate : 0.159 FPS
Count of elements : 889
Stream size : 31.1 KiB (0%)
Language : English
Default : No
Forced : No

Text #2
ID : 4
Format : UTF-8
Codec ID : S_TEXT/UTF8
Codec ID/Info : UTF-8 Plain Text
Duration : 1 h 38 min
Bit rate : 96 b/s
Frame rate : 0.296 FPS
Count of elements : 1748
Stream size : 69.3 KiB (0%)
Title : SDH
Language : English
Default : No
Forced : No

Text #3
ID : 5
Format : UTF-8
Codec ID : S_TEXT/UTF8
Codec ID/Info : UTF-8 Plain Text
Duration : 1 h 38 min
Bit rate : 123 b/s
Frame rate : 0.269 FPS
Count of elements : 1591
Stream size : 89.1 KiB (0%)
Language : Arabic
Default : No
Forced : No

Text #4
ID : 6
Format : UTF-8
Codec ID : S_TEXT/UTF8
Codec ID/Info : UTF-8 Plain Text
Duration : 1 h 38 min
Bit rate : 73 b/s
Frame rate : 0.265 FPS
Count of elements : 1570
Stream size : 52.9 KiB (0%)
Language : Czech
Default : No
Forced : No

Text #5
ID : 7
Format : UTF-8
Codec ID : S_TEXT/UTF8
Codec ID/Info : UTF-8 Plain Text
Duration : 1 h 38 min
Bit rate : 74 b/s
Frame rate : 0.236 FPS
Count of elements : 1394
Stream size : 53.7 KiB (0%)
Language : Danish
Default : No
Forced : No

Text #6
ID : 8
Format : UTF-8
Codec ID : S_TEXT/UTF8
Codec ID/Info : UTF-8 Plain Text
Duration : 1 h 38 min
Bit rate : 81 b/s
Frame rate : 0.257 FPS
Count of elements : 1520
Stream size : 58.7 KiB (0%)
Language : German
Default : No
Forced : No

Text #7
ID : 9
Format : UTF-8
Codec ID : S_TEXT/UTF8
Codec ID/Info : UTF-8 Plain Text
Duration : 1 h 38 min
Bit rate : 126 b/s
Frame rate : 0.269 FPS
Count of elements : 1591
Stream size : 91.2 KiB (0%)
Language : Greek
Default : No
Forced : No

Text #8
ID : 10
Format : UTF-8
Codec ID : S_TEXT/UTF8
Codec ID/Info : UTF-8 Plain Text
Duration : 1 h 38 min
Bit rate : 72 b/s
Frame rate : 0.266 FPS
Count of elements : 1573
Stream size : 52.1 KiB (0%)
Title : Latin American
Language : Spanish (Latin America)
Default : No
Forced : No

Text #9
ID : 11
Format : UTF-8
Codec ID : S_TEXT/UTF8
Codec ID/Info : UTF-8 Plain Text
Duration : 1 h 38 min
Bit rate : 72 b/s
Frame rate : 0.266 FPS
Count of elements : 1572
Stream size : 52.3 KiB (0%)
Language : Spanish (ES)
Default : No
Forced : No

Text #10
ID : 12
Format : UTF-8
Codec ID : S_TEXT/UTF8
Codec ID/Info : UTF-8 Plain Text
Duration : 1 h 38 min
Bit rate : 76 b/s
Frame rate : 0.264 FPS
Count of elements : 1564
Stream size : 55.0 KiB (0%)
Language : Finnish
Default : No
Forced : No

Text #11
ID : 13
Format : UTF-8
Codec ID : S_TEXT/UTF8
Codec ID/Info : UTF-8 Plain Text
Duration : 1 h 38 min
Bit rate : 77 b/s
Frame rate : 0.268 FPS
Count of elements : 1586
Stream size : 56.2 KiB (0%)
Language : French
Default : No
Forced : No

Text #12
ID : 14
Format : UTF-8
Codec ID : S_TEXT/UTF8
Codec ID/Info : UTF-8 Plain Text
Duration : 1 h 38 min
Bit rate : 111 b/s
Frame rate : 0.261 FPS
Count of elements : 1546
Stream size : 80.2 KiB (0%)
Language : Hebrew
Default : No
Forced : No

Text #13
ID : 15
Format : UTF-8
Codec ID : S_TEXT/UTF8
Codec ID/Info : UTF-8 Plain Text
Duration : 1 h 38 min
Bit rate : 68 b/s
Frame rate : 0.266 FPS
Count of elements : 1572
Stream size : 49.3 KiB (0%)
Language : Croatian
Default : No
Forced : No

Text #14
ID : 16
Format : UTF-8
Codec ID : S_TEXT/UTF8
Codec ID/Info : UTF-8 Plain Text
Duration : 1 h 38 min
Bit rate : 76 b/s
Frame rate : 0.258 FPS
Count of elements : 1525
Stream size : 55.2 KiB (0%)
Language : Hungarian
Default : No
Forced : No

Text #15
ID : 17
Format : UTF-8
Codec ID : S_TEXT/UTF8
Codec ID/Info : UTF-8 Plain Text
Duration : 1 h 38 min
Bit rate : 71 b/s
Frame rate : 0.269 FPS
Count of elements : 1590
Stream size : 51.3 KiB (0%)
Language : Indonesian
Default : No
Forced : No

Text #16
ID : 18
Format : UTF-8
Codec ID : S_TEXT/UTF8
Codec ID/Info : UTF-8 Plain Text
Duration : 1 h 38 min
Bit rate : 71 b/s
Frame rate : 0.266 FPS
Count of elements : 1572
Stream size : 51.8 KiB (0%)
Language : Italian
Default : No
Forced : No

Text #17
ID : 19
Format : UTF-8
Codec ID : S_TEXT/UTF8
Codec ID/Info : UTF-8 Plain Text
Duration : 1 h 38 min
Bit rate : 71 b/s
Frame rate : 0.261 FPS
Count of elements : 1545
Stream size : 51.7 KiB (0%)
Language : Japanese
Default : No
Forced : No

Text #18
ID : 20
Format : UTF-8
Codec ID : S_TEXT/UTF8
Codec ID/Info : UTF-8 Plain Text
Duration : 1 h 38 min
Bit rate : 88 b/s
Frame rate : 0.270 FPS
Count of elements : 1597
Stream size : 63.9 KiB (0%)
Language : Korean
Default : No
Forced : No

Text #19
ID : 21
Format : UTF-8
Codec ID : S_TEXT/UTF8
Codec ID/Info : UTF-8 Plain Text
Duration : 1 h 38 min
Bit rate : 77 b/s
Frame rate : 0.269 FPS
Count of elements : 1592
Stream size : 55.8 KiB (0%)
Language : Malay
Default : No
Forced : No

Text #20
ID : 22
Format : UTF-8
Codec ID : S_TEXT/UTF8
Codec ID/Info : UTF-8 Plain Text
Duration : 1 h 38 min
Bit rate : 71 b/s
Frame rate : 0.254 FPS
Count of elements : 1500
Stream size : 52.0 KiB (0%)
Language : Norwegian Bokmal
Default : No
Forced : No

Text #21
ID : 23
Format : UTF-8
Codec ID : S_TEXT/UTF8
Codec ID/Info : UTF-8 Plain Text
Duration : 1 h 38 min
Bit rate : 68 b/s
Frame rate : 0.207 FPS
Count of elements : 1227
Stream size : 49.6 KiB (0%)
Language : Dutch
Default : No
Forced : No

Text #22
ID : 24
Format : UTF-8
Codec ID : S_TEXT/UTF8
Codec ID/Info : UTF-8 Plain Text
Duration : 1 h 38 min
Bit rate : 69 b/s
Frame rate : 0.263 FPS
Count of elements : 1556
Stream size : 50.2 KiB (0%)
Language : Polish
Default : No
Forced : No

Text #23
ID : 25
Format : UTF-8
Codec ID : S_TEXT/UTF8
Codec ID/Info : UTF-8 Plain Text
Duration : 1 h 38 min
Bit rate : 76 b/s
Frame rate : 0.267 FPS
Count of elements : 1579
Stream size : 55.1 KiB (0%)
Title : Brazilian
Language : Portuguese (BR)
Default : No
Forced : No

Text #24
ID : 26
Format : UTF-8
Codec ID : S_TEXT/UTF8
Codec ID/Info : UTF-8 Plain Text
Duration : 1 h 38 min
Bit rate : 79 b/s
Frame rate : 0.266 FPS
Count of elements : 1574
Stream size : 57.3 KiB (0%)
Language : Portuguese (PT)
Default : No
Forced : No

Text #25
ID : 27
Format : UTF-8
Codec ID : S_TEXT/UTF8
Codec ID/Info : UTF-8 Plain Text
Duration : 1 h 38 min
Bit rate : 80 b/s
Frame rate : 0.255 FPS
Count of elements : 1511
Stream size : 58.3 KiB (0%)
Language : Romanian
Default : No
Forced : No

Text #26
ID : 28
Format : UTF-8
Codec ID : S_TEXT/UTF8
Codec ID/Info : UTF-8 Plain Text
Duration : 1 h 38 min
Bit rate : 109 b/s
Frame rate : 0.268 FPS
Count of elements : 1583
Stream size : 79.4 KiB (0%)
Language : Russian
Default : No
Forced : No

Text #27
ID : 29
Format : UTF-8
Codec ID : S_TEXT/UTF8
Codec ID/Info : UTF-8 Plain Text
Duration : 1 h 38 min
Bit rate : 70 b/s
Frame rate : 0.225 FPS
Count of elements : 1331
Stream size : 50.8 KiB (0%)
Language : Swedish
Default : No
Forced : No

Text #28
ID : 30
Format : UTF-8
Codec ID : S_TEXT/UTF8
Codec ID/Info : UTF-8 Plain Text
Duration : 1 h 38 min
Bit rate : 187 b/s
Frame rate : 0.269 FPS
Count of elements : 1594
Stream size : 136 KiB (0%)
Language : Thai
Default : No
Forced : No

Text #29
ID : 31
Format : UTF-8
Codec ID : S_TEXT/UTF8
Codec ID/Info : UTF-8 Plain Text
Duration : 1 h 38 min
Bit rate : 73 b/s
Frame rate : 0.262 FPS
Count of elements : 1553
Stream size : 52.8 KiB (0%)
Language : Turkish
Default : No
Forced : No

Text #30
ID : 32
Format : UTF-8
Codec ID : S_TEXT/UTF8
Codec ID/Info : UTF-8 Plain Text
Duration : 1 h 38 min
Bit rate : 120 b/s
Frame rate : 0.260 FPS
Count of elements : 1538
Stream size : 87.0 KiB (0%)
Language : Ukrainian
Default : No
Forced : No

Text #31
ID : 33
Format : UTF-8
Codec ID : S_TEXT/UTF8
Codec ID/Info : UTF-8 Plain Text
Duration : 1 h 38 min
Bit rate : 109 b/s
Frame rate : 0.269 FPS
Count of elements : 1593
Stream size : 79.2 KiB (0%)
Language : Vietnamese
Default : No
Forced : No

Text #32
ID : 34
Format : UTF-8
Codec ID : S_TEXT/UTF8
Codec ID/Info : UTF-8 Plain Text
Duration : 1 h 38 min
Bit rate : 72 b/s
Frame rate : 0.292 FPS
Count of elements : 1726
Stream size : 52.6 KiB (0%)
Title : 简体
Language : Chinese (Simplied)

Default : No
Forced : No

Text #33
ID : 35
Format : UTF-8
Codec ID : S_TEXT/UTF8
Codec ID/Info : UTF-8 Plain Text
Duration : 1 h 38 min
Bit rate : 67 b/s
Frame rate : 0.269 FPS
Count of elements : 1594
Stream size : 49.1 KiB (0%)
Title : 繁体
Language : Chinese (Traditional)

Default : No
Forced : No

Menu
01:38:32.000 : en:End Credits

推荐使用qBittorrent、uTorrent、BitComet等下载软件,有条件的推荐115或会员软件下载!

下载地址

游客,如果您要查看本帖隐藏内容请回复
游客,如果您要查看本帖隐藏内容请回复

游客,如果您要查看本帖隐藏内容请回复

游客,如果您要查看本帖隐藏内容请回复







上一篇:克里斯·洛克:铃鼓 [简繁中字] (2018) 4K高清版本下载
下一篇:我想结束这一切 [简繁中字] (2020) 4K高清版本下载
回复

使用道具 举报

主题

帖子

0

积分

新手上路

Rank: 1

积分
0
发表于 2023-1-4 09:54:13 | 显示全部楼层
谢谢分享
回复

使用道具 举报

您需要登录后才可以回帖 登录 | 立即注册

本版积分规则

精彩图文
Archiver|手机版|TAG|Sitemap|新帖|专题|联系我们:邮箱: 4kjia.com@gmail.com   

4k家园   ©2019