[4K电影] 菜单 / The Menu (2022) 4K高清版本下载

[复制链接]

主题

帖子

0

积分

超级版主

Rank: 8Rank: 8

积分
0
 楼主| 发表于 2023-1-4 11:00:03 | 显示全部楼层 |阅读模式
本帖最后由 最爱4K哟 于 2023-1-4 11:00 编辑

QQ图片20230104105447_副本.png

◎译  名 菜单/五腥级盛宴(港)/五星飨魇(台)
◎片  名 The Menu
◎年  代 2022
◎产  地 美国
◎类  别 喜剧/恐怖
◎语  言 英语
◎上映日期 2022-09-10(多伦多电影节)/2022-11-18(美国)
◎IMDb评分 7.4/10 from 51776 users 更新 : 2023-01-04
◎IMDb链接 https://www.imdb.com/title/tt9764362/
◎豆瓣评分 6.6/10 from 6536 users 更新 : 2023-01-04
◎豆瓣链接 https://movie.douban.com/subject/30455615/
◎导  演 马克·米罗 Mark Mylod
◎编  剧 塞斯·雷斯 Seth Reiss / 威尔·崔西 Will Tracy
◎主  演 拉尔夫·费因斯 Ralph Fiennes
       安雅·泰勒-乔伊 Anya Taylor-Joy
       尼古拉斯·霍尔特 Nicholas Hoult
       周洪 Hong Chau
       珍妮·麦克蒂尔 Janet McTeer
       保罗·安德斯坦 Paul Adelstein
       约翰·雷吉扎莫 John Leguizamo
       艾米·卡里诺 Aimee Carrero
       里德·伯尼 Reed Birney
       朱迪斯·赖特 Judith Light
       丽贝卡·库恩 Rebecca Koon
       杨罗布 Rob Yang
       阿图罗·卡斯特罗 Arturo Castro
       马克·圣·西尔 Mark St. Cyr
       彼得·格罗西 Peter Grosz
       克里斯蒂娜·布鲁卡托 Christina Brucato
       亚当·阿尔德斯 Adam Aalderks
       乔恩·保罗·艾伦 Jon Paul Allyn
       梅尔·法尔 Mel Fair
       克里斯蒂安·冈萨雷斯 Cristian Gonzalez
       马修·康威尔 Matthew Cornwell
       杰伊·沙迪克斯 Jay Shadix


◎简  介


  一对年轻夫妇去一个偏远岛屿上造访一家餐厅,据说这家餐厅的厨师会为人提供惊喜的菜单。

◎获奖情况

  第80届金球奖(2023)
  电影类 音乐/喜剧片最佳男主角(提名)
  电影类 音乐/喜剧片最佳女主角(提名)

Video
ID : 1
Format : HEVC
Format/Info : High Efficiency Video Coding
Format profile : Main 10@L5@High
HDR format : Dolby Vision, Version 1.0, dvhe.08.06, BL+RPU, HDR10 compatible / SMPTE ST 2086, HDR10 compatible
Codec ID : V_MPEGH/ISO/HEVC
Duration : 1 h 47 min
Bit rate : 24.6 Mb/s
Width : 3 840 pixels
Height : 2 160 pixels
Display aspect ratio : 16:9
Frame rate mode : Constant
Frame rate : 23.976 (24000/1001) FPS
Color space : YUV
Chroma subsampling : 4:2:0 (Type 2)
Bit depth : 10 bits
Bits/(Pixel*Frame) : 0.124
Stream size : 18.4 GiB (97%)
Language : English
Default : Yes
Forced : No
Color range : Limited
Color primaries : BT.2020
Transfer characteristics : PQ
Matrix coefficients : BT.2020 non-constant
Mastering display color primaries : Display P3
Mastering display luminance : min: 0.0001 cd/m2, max: 1000 cd/m2
Maximum Content Light Level : 449 cd/m2
Maximum Frame-Average Light Level : 119 cd/m2

Audio
ID : 2
Format : E-AC-3 JOC
Format/Info : Enhanced AC-3 with Joint Object Coding
Commercial name : Dolby Digital Plus with Dolby Atmos
Codec ID : A_EAC3
Duration : 1 h 47 min
Bit rate mode : Constant
Bit rate : 768 kb/s
Channel(s) : 6 channels
Channel layout : L R C LFE Ls Rs
Sampling rate : 48.0 kHz
Frame rate : 31.250 FPS (1536 SPF)
Compression mode : Lossy
Delay relative to video : 83 ms
Stream size : 588 MiB (3%)
Language : English
Service kind : Complete Main
Default : Yes
Forced : No
Complexity index : 16
Number of dynamic objects : 15
Bed channel count : 1 channel
Bed channel configuration : LFE

Text #1
ID : 3
Format : UTF-8
Codec ID : S_TEXT/UTF8
Codec ID/Info : UTF-8 Plain Text
Duration : 1 h 37 min
Bit rate : 71 b/s
Frame rate : 0.295 FPS
Count of elements : 1733
Stream size : 51.4 KiB (0%)
Language : English
Default : No
Forced : No

Text #2
ID : 4
Format : UTF-8
Codec ID : S_TEXT/UTF8
Codec ID/Info : UTF-8 Plain Text
Duration : 1 h 40 min
Bit rate : 79 b/s
Frame rate : 0.315 FPS
Count of elements : 1895
Stream size : 58.6 KiB (0%)
Title : SDH
Language : English
Default : No
Forced : No

Text #3
ID : 5
Format : UTF-8
Codec ID : S_TEXT/UTF8
Codec ID/Info : UTF-8 Plain Text
Duration : 1 h 40 min
Bit rate : 69 b/s
Frame rate : 0.293 FPS
Count of elements : 1768
Stream size : 50.9 KiB (0%)
Title : Latin American
Language : Spanish (Latin America)
Default : No
Forced : No

Text #4
ID : 6
Format : UTF-8
Codec ID : S_TEXT/UTF8
Codec ID/Info : UTF-8 Plain Text
Duration : 1 h 46 min
Bit rate : 68 b/s
Frame rate : 0.277 FPS
Count of elements : 1769
Stream size : 53.3 KiB (0%)
Title : Canadian
Language : French (CA)
Default : No
Forced : No

推荐使用qBittorrent、uTorrent、BitComet等下载软件,有条件的推荐115或会员软件下载!

下载地址

游客,如果您要查看本帖隐藏内容请回复

游客,如果您要查看本帖隐藏内容请回复

游客,如果您要查看本帖隐藏内容请回复

游客,如果您要查看本帖隐藏内容请回复




上一篇:美国最后一宗罪案 [简繁中字] (2020) 4K高清版本下载
下一篇:我仍然知道你去年夏天干了什么 (1998) 4K高清版本下载
回复

使用道具 举报

0

主题

11

帖子

42

积分

新手上路

Rank: 1

积分
42
发表于 2023-1-4 11:45:57 | 显示全部楼层
good!!!!!!!!aaaaaaa
回复 支持 反对

使用道具 举报

0

主题

7

帖子

81

积分

新手上路

Rank: 1

积分
81
发表于 2023-1-4 15:19:33 | 显示全部楼层
卡看
回复

使用道具 举报

主题

帖子

0

积分

新手上路

Rank: 1

积分
0
发表于 2023-1-4 16:00:13 来自手机 | 显示全部楼层
good!!!!!!!!aaaaaaa
回复 支持 反对

使用道具 举报

0

主题

1

帖子

6

积分

新手上路

Rank: 1

积分
6
发表于 2023-1-5 14:06:46 | 显示全部楼层
非常想看~
回复

使用道具 举报

您需要登录后才可以回帖 登录 | 立即注册

本版积分规则

精彩图文
Archiver|手机版|TAG|Sitemap|新帖|专题|联系我们:邮箱: 4kjia.com@gmail.com   

4k家园   ©2019