[4K电影] 彼女 [简繁中字] / Ride or Die (2021) 4K高清版本下载

[复制链接]

主题

帖子

0

积分

超级版主

Rank: 8Rank: 8

积分
0
 楼主| 发表于 2023-1-4 11:32:43 | 显示全部楼层 |阅读模式
QQ图片20230104113421_副本.png

◎标  题 彼女
◎译  名 她 / Ride or Die
◎年  代 2021
◎产  地 日本
◎类  别 剧情 / 爱情 / 同性 / 犯罪
◎语  言 日语
◎上映日期 2021-04-15(日本网络)
◎IMDb评分 5.6/10 from 2069 users 更新 : 2023-01-04
◎IMDb链接 https://www.imdb.com/title/tt14164234/
◎豆瓣评分 5.6/10 from 6894 users 更新 : 2023-01-04
◎豆瓣链接 https://movie.douban.com/subject/35234308/
◎片  长 142分钟
◎导  演 广木隆一 Ryuichi Hiroki
◎编  剧 吉川菜美 Nami Yoshikawa / 中村珍 Ching Nakamura
◎演  员 水原希子 Kiko Mizuhara
       佐藤穗奈美 Honami Sato
       新纳慎也 Shinya NIRO
       田中俊介 Shunsuke Tanaka
       乌丸节子 Setsuko Karasuma
       南沙良 Sara Minami
       铃木杏 Anne Suzuki
       田中哲司 Tetsushi Tanaka
       真木阳子 Yoko Maki
       植村友结 Yui Uemura


◎简  介


  影片原作是中村珍所著的女同漫画《群青》,讲述永泽和篠田两个女性之间的爱恨纠葛——永泽从高中时代起就爱慕着篠田,篠田在结婚后受到丈夫的家暴,一句“你帮我把他杀了吧”,让永泽成为了杀人犯。

Video
ID : 1
Format : HEVC
Format/Info : High Efficiency Video Coding
Format profile : Main 10@L5@Main
HDR format : Dolby Vision, Version 1.0, dvhe.08.06, BL+RPU, HDR10 compatible / SMPTE ST 2086, HDR10 compatible
Codec ID : V_MPEGH/ISO/HEVC
Duration : 2 h 22 min
Bit rate : 17.9 Mb/s
Width : 3 840 pixels
Height : 2 160 pixels
Display aspect ratio : 16:9
Frame rate mode : Constant
Frame rate : 23.976 (24000/1001) FPS
Color space : YUV
Chroma subsampling : 4:2:0 (Type 2)
Bit depth : 10 bits
Bits/(Pixel*Frame) : 0.090
Stream size : 17.8 GiB (96%)
Language : Japanese
Default : Yes
Forced : No
Color range : Limited
Color primaries : BT.2020
Transfer characteristics : PQ
Matrix coefficients : BT.2020 non-constant
Mastering display color primaries : Display P3
Mastering display luminance : min: 0.0001 cd/m2, max: 1000 cd/m2
Maximum Content Light Level : 907 cd/m2
Maximum Frame-Average Light Level : 97 cd/m2

Audio
ID : 2
Format : E-AC-3 JOC
Format/Info : Enhanced AC-3 with Joint Object Coding
Commercial name : Dolby Digital Plus with Dolby Atmos
Codec ID : A_EAC3
Duration : 2 h 22 min
Bit rate mode : Constant
Bit rate : 768 kb/s
Channel(s) : 6 channels
Channel layout : L R C LFE Ls Rs
Sampling rate : 48.0 kHz
Frame rate : 31.250 FPS (1536 SPF)
Compression mode : Lossy
Stream size : 785 MiB (4%)
Language : Japanese
Service kind : Complete Main
Default : Yes
Forced : No
Complexity index : 16
Number of dynamic objects : 15
Bed channel count : 1 channel
Bed channel configuration : LFE

Text #1
ID : 3
Format : UTF-8
Codec ID : S_TEXT/UTF8
Codec ID/Info : UTF-8 Plain Text
Duration : 5 s 797 ms
Bit rate : 35 b/s
Frame rate : 0.173 FPS
Count of elements : 1
Stream size : 26.0 Bytes (0%)
Title : Forced
Language : Japanese
Default : Yes
Forced : Yes

Text #2
ID : 4
Format : UTF-8
Codec ID : S_TEXT/UTF8
Codec ID/Info : UTF-8 Plain Text
Duration : 2 h 22 min
Bit rate : 39 b/s
Frame rate : 0.130 FPS
Count of elements : 1105
Stream size : 40.9 KiB (0%)
Language : Japanese
Default : No
Forced : No

Text #3
ID : 5
Format : UTF-8
Codec ID : S_TEXT/UTF8
Codec ID/Info : UTF-8 Plain Text
Duration : 2 h 22 min
Bit rate : 39 b/s
Frame rate : 0.130 FPS
Count of elements : 1105
Stream size : 41.2 KiB (0%)
Title : SDH
Language : Japanese
Default : No
Forced : No

Text #4
ID : 6
Format : UTF-8
Codec ID : S_TEXT/UTF8
Codec ID/Info : UTF-8 Plain Text
Duration : 2 h 22 min
Bit rate : 37 b/s
Frame rate : 0.112 FPS
Count of elements : 955
Stream size : 38.8 KiB (0%)
Language : Arabic
Default : No
Forced : No

Text #5
ID : 7
Format : UTF-8
Codec ID : S_TEXT/UTF8
Codec ID/Info : UTF-8 Plain Text
Duration : 2 h 22 min
Bit rate : 22 b/s
Frame rate : 0.112 FPS
Count of elements : 955
Stream size : 23.1 KiB (0%)
Language : Czech
Default : No
Forced : No

Text #6
ID : 8
Format : UTF-8
Codec ID : S_TEXT/UTF8
Codec ID/Info : UTF-8 Plain Text
Duration : 2 h 22 min
Bit rate : 23 b/s
Frame rate : 0.112 FPS
Count of elements : 955
Stream size : 24.0 KiB (0%)
Language : Danish
Default : No
Forced : No

Text #7
ID : 9
Format : UTF-8
Codec ID : S_TEXT/UTF8
Codec ID/Info : UTF-8 Plain Text
Duration : 2 h 22 min
Bit rate : 25 b/s
Frame rate : 0.112 FPS
Count of elements : 955
Stream size : 26.4 KiB (0%)
Language : German
Default : No
Forced : No

Text #8
ID : 10
Format : UTF-8
Codec ID : S_TEXT/UTF8
Codec ID/Info : UTF-8 Plain Text
Duration : 2 h 22 min
Bit rate : 36 b/s
Frame rate : 0.112 FPS
Count of elements : 955
Stream size : 38.5 KiB (0%)
Language : Greek
Default : No
Forced : No

Text #9
ID : 11
Format : UTF-8
Codec ID : S_TEXT/UTF8
Codec ID/Info : UTF-8 Plain Text
Duration : 2 h 21 min
Bit rate : 23 b/s
Frame rate : 0.112 FPS
Count of elements : 953
Stream size : 24.1 KiB (0%)
Language : English
Default : No
Forced : No

Text #10
ID : 12
Format : UTF-8
Codec ID : S_TEXT/UTF8
Codec ID/Info : UTF-8 Plain Text
Duration : 2 h 22 min
Bit rate : 21 b/s
Frame rate : 0.111 FPS
Count of elements : 948
Stream size : 22.6 KiB (0%)
Title : Latin American
Language : Spanish (Latin America)
Default : No
Forced : No

Text #11
ID : 13
Format : UTF-8
Codec ID : S_TEXT/UTF8
Codec ID/Info : UTF-8 Plain Text
Duration : 2 h 22 min
Bit rate : 22 b/s
Frame rate : 0.112 FPS
Count of elements : 955
Stream size : 23.4 KiB (0%)
Language : Spanish (ES)
Default : No
Forced : No

Text #12
ID : 14
Format : UTF-8
Codec ID : S_TEXT/UTF8
Codec ID/Info : UTF-8 Plain Text
Duration : 2 h 22 min
Bit rate : 22 b/s
Frame rate : 0.112 FPS
Count of elements : 955
Stream size : 23.9 KiB (0%)
Language : Finnish
Default : No
Forced : No

Text #13
ID : 15
Format : UTF-8
Codec ID : S_TEXT/UTF8
Codec ID/Info : UTF-8 Plain Text
Duration : 2 h 22 min
Bit rate : 24 b/s
Frame rate : 0.112 FPS
Count of elements : 952
Stream size : 25.8 KiB (0%)
Language : French
Default : No
Forced : No

Text #14
ID : 16
Format : UTF-8
Codec ID : S_TEXT/UTF8
Codec ID/Info : UTF-8 Plain Text
Duration : 2 h 22 min
Bit rate : 33 b/s
Frame rate : 0.112 FPS
Count of elements : 955
Stream size : 35.4 KiB (0%)
Language : Hebrew
Default : No
Forced : No

Text #15
ID : 17
Format : UTF-8
Codec ID : S_TEXT/UTF8
Codec ID/Info : UTF-8 Plain Text
Duration : 2 h 22 min
Bit rate : 21 b/s
Frame rate : 0.112 FPS
Count of elements : 955
Stream size : 22.7 KiB (0%)
Language : Croatian
Default : No
Forced : No

Text #16
ID : 18
Format : UTF-8
Codec ID : S_TEXT/UTF8
Codec ID/Info : UTF-8 Plain Text
Duration : 2 h 22 min
Bit rate : 21 b/s
Frame rate : 0.112 FPS
Count of elements : 952
Stream size : 22.6 KiB (0%)
Language : Hungarian
Default : No
Forced : No

Text #17
ID : 19
Format : UTF-8
Codec ID : S_TEXT/UTF8
Codec ID/Info : UTF-8 Plain Text
Duration : 2 h 22 min
Bit rate : 23 b/s
Frame rate : 0.112 FPS
Count of elements : 955
Stream size : 24.0 KiB (0%)
Language : Indonesian
Default : No
Forced : No

Text #18
ID : 20
Format : UTF-8
Codec ID : S_TEXT/UTF8
Codec ID/Info : UTF-8 Plain Text
Duration : 2 h 22 min
Bit rate : 22 b/s
Frame rate : 0.112 FPS
Count of elements : 954
Stream size : 23.2 KiB (0%)
Language : Italian
Default : No
Forced : No

Text #19
ID : 21
Format : UTF-8
Codec ID : S_TEXT/UTF8
Codec ID/Info : UTF-8 Plain Text
Duration : 2 h 22 min
Bit rate : 28 b/s
Frame rate : 0.110 FPS
Count of elements : 940
Stream size : 29.3 KiB (0%)
Language : Korean
Default : No
Forced : No

Text #20
ID : 22
Format : UTF-8
Codec ID : S_TEXT/UTF8
Codec ID/Info : UTF-8 Plain Text
Duration : 2 h 22 min
Bit rate : 24 b/s
Frame rate : 0.112 FPS
Count of elements : 955
Stream size : 25.5 KiB (0%)
Language : Malay
Default : No
Forced : No

Text #21
ID : 23
Format : UTF-8
Codec ID : S_TEXT/UTF8
Codec ID/Info : UTF-8 Plain Text
Duration : 2 h 22 min
Bit rate : 22 b/s
Frame rate : 0.112 FPS
Count of elements : 955
Stream size : 23.3 KiB (0%)
Language : Norwegian Bokmal
Default : No
Forced : No

Text #22
ID : 24
Format : UTF-8
Codec ID : S_TEXT/UTF8
Codec ID/Info : UTF-8 Plain Text
Duration : 2 h 22 min
Bit rate : 22 b/s
Frame rate : 0.111 FPS
Count of elements : 950
Stream size : 23.0 KiB (0%)
Language : Dutch
Default : No
Forced : No

Text #23
ID : 25
Format : UTF-8
Codec ID : S_TEXT/UTF8
Codec ID/Info : UTF-8 Plain Text
Duration : 2 h 22 min
Bit rate : 22 b/s
Frame rate : 0.112 FPS
Count of elements : 955
Stream size : 23.9 KiB (0%)
Language : Polish
Default : No
Forced : No

Text #24
ID : 26
Format : UTF-8
Codec ID : S_TEXT/UTF8
Codec ID/Info : UTF-8 Plain Text
Duration : 2 h 22 min
Bit rate : 22 b/s
Frame rate : 0.111 FPS
Count of elements : 943
Stream size : 23.8 KiB (0%)
Title : Brazilian
Language : Portuguese (BR)
Default : No
Forced : No

Text #25
ID : 27
Format : UTF-8
Codec ID : S_TEXT/UTF8
Codec ID/Info : UTF-8 Plain Text
Duration : 2 h 22 min
Bit rate : 21 b/s
Frame rate : 0.112 FPS
Count of elements : 954
Stream size : 22.4 KiB (0%)
Language : Portuguese (PT)
Default : No
Forced : No

Text #26
ID : 28
Format : UTF-8
Codec ID : S_TEXT/UTF8
Codec ID/Info : UTF-8 Plain Text
Duration : 2 h 22 min
Bit rate : 26 b/s
Frame rate : 0.112 FPS
Count of elements : 955
Stream size : 27.3 KiB (0%)
Language : Romanian
Default : No
Forced : No

Text #27
ID : 29
Format : UTF-8
Codec ID : S_TEXT/UTF8
Codec ID/Info : UTF-8 Plain Text
Duration : 2 h 22 min
Bit rate : 38 b/s
Frame rate : 0.112 FPS
Count of elements : 955
Stream size : 40.5 KiB (0%)
Language : Russian
Default : No
Forced : No

Text #28
ID : 30
Format : UTF-8
Codec ID : S_TEXT/UTF8
Codec ID/Info : UTF-8 Plain Text
Duration : 2 h 22 min
Bit rate : 22 b/s
Frame rate : 0.112 FPS
Count of elements : 955
Stream size : 23.7 KiB (0%)
Language : Swedish
Default : No
Forced : No

Text #29
ID : 31
Format : UTF-8
Codec ID : S_TEXT/UTF8
Codec ID/Info : UTF-8 Plain Text
Duration : 2 h 22 min
Bit rate : 58 b/s
Frame rate : 0.112 FPS
Count of elements : 955
Stream size : 61.5 KiB (0%)
Language : Thai
Default : No
Forced : No

Text #30
ID : 32
Format : UTF-8
Codec ID : S_TEXT/UTF8
Codec ID/Info : UTF-8 Plain Text
Duration : 2 h 22 min
Bit rate : 23 b/s
Frame rate : 0.112 FPS
Count of elements : 955
Stream size : 24.0 KiB (0%)
Language : Turkish
Default : No
Forced : No

Text #31
ID : 33
Format : UTF-8
Codec ID : S_TEXT/UTF8
Codec ID/Info : UTF-8 Plain Text
Duration : 2 h 22 min
Bit rate : 34 b/s
Frame rate : 0.111 FPS
Count of elements : 950
Stream size : 35.5 KiB (0%)
Language : Ukrainian
Default : No
Forced : No

Text #32
ID : 34
Format : UTF-8
Codec ID : S_TEXT/UTF8
Codec ID/Info : UTF-8 Plain Text
Duration : 2 h 22 min
Bit rate : 33 b/s
Frame rate : 0.112 FPS
Count of elements : 955
Stream size : 35.0 KiB (0%)
Language : Vietnamese
Default : No
Forced : No

Text #33
ID : 35
Format : UTF-8
Codec ID : S_TEXT/UTF8
Codec ID/Info : UTF-8 Plain Text
Duration : 2 h 22 min
Bit rate : 24 b/s
Frame rate : 0.113 FPS
Count of elements : 965
Stream size : 25.4 KiB (0%)
Title : 简体
Language : Chinese (Simplied)

Default : No
Forced : No

Text #34
ID : 36
Format : UTF-8
Codec ID : S_TEXT/UTF8
Codec ID/Info : UTF-8 Plain Text
Duration : 2 h 22 min
Bit rate : 24 b/s
Frame rate : 0.112 FPS
Count of elements : 957
Stream size : 25.4 KiB (0%)
Title : 繁体
Language : Chinese (Traditional)

Default : No
Forced : No

Menu
02:19:21.000 : en:End Credits


推荐使用qBittorrent、uTorrent、BitComet等下载软件,有条件的推荐115或会员软件下载!

下载地址


游客,如果您要查看本帖隐藏内容请回复





上一篇:我仍然知道你去年夏天干了什么 (1998) 4K高清版本下载
下一篇:传染病 / Contagion (2011) 4K高清版本下载
回复

使用道具 举报

主题

帖子

0

积分

新手上路

Rank: 1

积分
0
发表于 2023-1-4 12:37:11 | 显示全部楼层
谢谢楼主分享
回复 支持 反对

使用道具 举报

0

主题

2

帖子

9

积分

新手上路

Rank: 1

积分
9
发表于 2023-1-4 18:56:48 | 显示全部楼层
HAOXONGXIJG
回复 支持 反对

使用道具 举报

0

主题

15

帖子

52

积分

新手上路

Rank: 1

积分
52
发表于 2023-1-4 23:36:48 | 显示全部楼层
复合弓
回复

使用道具 举报

0

主题

1

帖子

6

积分

新手上路

Rank: 1

积分
6
发表于 2023-1-5 15:49:50 | 显示全部楼层
谢谢分享1111111111111
回复 支持 反对

使用道具 举报

您需要登录后才可以回帖 登录 | 立即注册

本版积分规则

精彩图文
Archiver|手机版|TAG|Sitemap|新帖|专题|联系我们:邮箱: 4kjia.com@gmail.com   

4k家园   ©2019