[4K电影] 亲爱的,我把孩子缩小了 [简繁中字] (1988) 4K高清版本下载

[复制链接]

主题

帖子

0

积分

超级版主

Rank: 8Rank: 8

积分
0
 楼主| 发表于 2023-1-4 15:00:00 | 显示全部楼层 |阅读模式

QQ图片20230104124037_副本.png

◎译  名 亲爱的,我把孩子缩小了/豆钉小灵精(台)/豆丁小精灵
◎片  名 Honey, I Shrunk the Kids
◎年  代 1989
◎产  地 美国
◎类  别 喜剧/科幻/家庭/冒险
◎语  言 英语
◎上映日期 1989-06-23
◎IMDb评分 6.4/10 from 156894 users 更新 : 2023-01-01
◎IMDb链接 https://www.imdb.com/title/tt0097523/
◎豆瓣评分 7.6/10 from 22158 users 更新 : 2023-01-04
◎豆瓣链接 https://movie.douban.com/subject/1302355/
◎导  演 乔·庄斯顿 Joe Johnston
◎编  剧 斯图尔特·戈登 Stuart Gordon / 布莱恩·尤兹纳 Brian Yuzna / 汤姆·舒尔曼 Tom Schulman / 埃德·纳哈 Ed Naha
◎主  演 里克·莫拉尼斯 Rick Moranis
       马特·弗里沃 Matt Frewer
       玛西亚·斯特拉斯曼 Marcia Strassman
       克里斯汀·萨瑟兰 Kristine Sutherland
       托马斯·威尔逊·布朗 Thomas Wilson Brown
       杰瑞德·拉什顿 Jared Rushton
       艾米·奥尼尔 Amy O'Neill
       罗伯特·奥利维里 Robert Oliveri
       卡尔·斯蒂文 Carl Steven
       马克·L·泰勒 Mark L. Taylor
       弗兰克·维尔克 Frank Welker
       金米·罗伯特森 Kimmy Robertson
       克雷格·理查德·纳尔逊 Craig Richard Nelson

Video
ID : 1
Format : HEVC
Format/Info : High Efficiency Video Coding
Format profile : Main 10@L5@High
HDR format : Dolby Vision, Version 1.0, dvhe.08.06, BL+RPU, HDR10 compatible / SMPTE ST 2086, HDR10 compatible
Codec ID : V_MPEGH/ISO/HEVC
Duration : 1 h 33 min
Bit rate : 15.2 Mb/s
Width : 3 840 pixels
Height : 2 160 pixels
Display aspect ratio : 16:9
Frame rate mode : Constant
Frame rate : 23.976 (24000/1001) FPS
Color space : YUV
Chroma subsampling : 4:2:0
Bit depth : 10 bits
Bits/(Pixel*Frame) : 0.076
Stream size : 9.90 GiB (78%)
Default : Yes
Forced : No
Color range : Limited
Color primaries : BT.2020
Transfer characteristics : PQ
Matrix coefficients : BT.2020 non-constant
Mastering display color primaries : Display P3
Mastering display luminance : min: 0.0050 cd/m2, max: 4000 cd/m2

Audio #1
ID : 2
Format : DTS XLL
Format/Info : Digital Theater Systems
Commercial name : DTS-HD Master Audio
Codec ID : A_DTS
Duration : 1 h 33 min
Bit rate mode : Variable
Bit rate : 3 667 kb/s
Channel(s) : 6 channels
Channel layout : C L R Ls Rs LFE
Sampling rate : 48.0 kHz
Frame rate : 93.750 FPS (512 SPF)
Bit depth : 24 bits
Compression mode : Lossless
Delay relative to video : 2 ms
Stream size : 2.40 GiB (19%)
Title : DTS-HD MA 5.1
Language : English
Default : Yes
Forced : No

Audio #2
ID : 3
Format : AC-3
Format/Info : Audio Coding 3
Commercial name : Dolby Digital
Codec ID : A_AC3
Duration : 1 h 33 min
Bit rate mode : Constant
Bit rate : 640 kb/s
Channel(s) : 6 channels
Channel layout : L R C LFE Ls Rs
Sampling rate : 48.0 kHz
Frame rate : 31.250 FPS (1536 SPF)
Compression mode : Lossy
Stream size : 429 MiB (3%)
Title : DD 5.1
Language : English
Service kind : Complete Main
Default : No
Forced : No

Text #1
ID : 4
Format : UTF-8
Codec ID : S_TEXT/UTF8
Codec ID/Info : UTF-8 Plain Text
Duration : 1 h 26 min
Bit rate : 62 b/s
Frame rate : 0.259 FPS
Count of elements : 1348
Stream size : 39.8 KiB (0%)
Title : SDH
Language : English
Default : Yes
Forced : No

Text #2
ID : 5
Format : UTF-8
Codec ID : S_TEXT/UTF8
Codec ID/Info : UTF-8 Plain Text
Duration : 1 h 30 min
Bit rate : 47 b/s
Frame rate : 0.195 FPS
Count of elements : 1056
Stream size : 31.4 KiB (0%)
Language : Czech
Default : No
Forced : No

Text #3
ID : 6
Format : UTF-8
Codec ID : S_TEXT/UTF8
Codec ID/Info : UTF-8 Plain Text
Duration : 1 h 26 min
Bit rate : 47 b/s
Frame rate : 0.208 FPS
Count of elements : 1084
Stream size : 30.2 KiB (0%)
Language : Danish
Default : No
Forced : No

Text #4
ID : 7
Format : UTF-8
Codec ID : S_TEXT/UTF8
Codec ID/Info : UTF-8 Plain Text
Duration : 1 h 26 min
Bit rate : 50 b/s
Frame rate : 0.208 FPS
Count of elements : 1081
Stream size : 31.9 KiB (0%)
Language : German
Default : No
Forced : No

Text #5
ID : 8
Format : UTF-8
Codec ID : S_TEXT/UTF8
Codec ID/Info : UTF-8 Plain Text
Duration : 1 h 30 min
Bit rate : 83 b/s
Frame rate : 0.195 FPS
Count of elements : 1058
Stream size : 55.4 KiB (0%)
Language : Greek
Default : No
Forced : No

Text #6
ID : 9
Format : UTF-8
Codec ID : S_TEXT/UTF8
Codec ID/Info : UTF-8 Plain Text
Duration : 1 h 29 min
Bit rate : 53 b/s
Frame rate : 0.183 FPS
Count of elements : 978
Stream size : 35.3 KiB (0%)
Title : Latin America
Language : Spanish (Latin America)
Default : No
Forced : No

Text #7
ID : 10
Format : UTF-8
Codec ID : S_TEXT/UTF8
Codec ID/Info : UTF-8 Plain Text
Duration : 1 h 29 min
Bit rate : 47 b/s
Frame rate : 0.201 FPS
Count of elements : 1078
Stream size : 30.9 KiB (0%)
Language : Spanish (ES)
Default : No
Forced : No

Text #8
ID : 11
Format : UTF-8
Codec ID : S_TEXT/UTF8
Codec ID/Info : UTF-8 Plain Text
Duration : 1 h 26 min
Bit rate : 52 b/s
Frame rate : 0.207 FPS
Count of elements : 1077
Stream size : 33.3 KiB (0%)
Language : Finnish
Default : No
Forced : No

Text #9
ID : 12
Format : UTF-8
Codec ID : S_TEXT/UTF8
Codec ID/Info : UTF-8 Plain Text
Duration : 1 h 29 min
Bit rate : 74 b/s
Frame rate : 0.319 FPS
Count of elements : 1712
Stream size : 49.0 KiB (0%)
Title : Canada (SDH)
Language : French (CA)
Default : No
Forced : No

Text #10
ID : 13
Format : UTF-8
Codec ID : S_TEXT/UTF8
Codec ID/Info : UTF-8 Plain Text
Duration : 1 h 29 min
Bit rate : 41 b/s
Frame rate : 0.177 FPS
Count of elements : 947
Stream size : 27.0 KiB (0%)
Language : French (FR)
Default : No
Forced : No

Text #11
ID : 14
Format : UTF-8
Codec ID : S_TEXT/UTF8
Codec ID/Info : UTF-8 Plain Text
Duration : 1 h 30 min
Bit rate : 46 b/s
Frame rate : 0.195 FPS
Count of elements : 1056
Stream size : 30.9 KiB (0%)
Language : Hungarian
Default : No
Forced : No

Text #12
ID : 15
Format : UTF-8
Codec ID : S_TEXT/UTF8
Codec ID/Info : UTF-8 Plain Text
Duration : 1 h 26 min
Bit rate : 48 b/s
Frame rate : 0.206 FPS
Count of elements : 1073
Stream size : 31.0 KiB (0%)
Language : Italian
Default : No
Forced : No

Text #13
ID : 16
Format : UTF-8
Codec ID : S_TEXT/UTF8
Codec ID/Info : UTF-8 Plain Text
Duration : 1 h 26 min
Bit rate : 34 b/s
Frame rate : 0.175 FPS
Count of elements : 912
Stream size : 21.7 KiB (0%)
Language : Japanese
Default : No
Forced : No

Text #14
ID : 17
Format : UTF-8
Codec ID : S_TEXT/UTF8
Codec ID/Info : UTF-8 Plain Text
Duration : 1 h 29 min
Bit rate : 34 b/s
Frame rate : 0.158 FPS
Count of elements : 847
Stream size : 22.4 KiB (0%)
Language : Korean
Default : No
Forced : No

Text #15
ID : 18
Format : UTF-8
Codec ID : S_TEXT/UTF8
Codec ID/Info : UTF-8 Plain Text
Duration : 1 h 26 min
Bit rate : 47 b/s
Frame rate : 0.206 FPS
Count of elements : 1071
Stream size : 30.0 KiB (0%)
Language : Norwegian Bokmal
Default : No
Forced : No

Text #16
ID : 19
Format : UTF-8
Codec ID : S_TEXT/UTF8
Codec ID/Info : UTF-8 Plain Text
Duration : 1 h 26 min
Bit rate : 35 b/s
Frame rate : 0.154 FPS
Count of elements : 800
Stream size : 22.8 KiB (0%)
Language : Dutch
Default : No
Forced : No

Text #17
ID : 20
Format : UTF-8
Codec ID : S_TEXT/UTF8
Codec ID/Info : UTF-8 Plain Text
Duration : 1 h 30 min
Bit rate : 48 b/s
Frame rate : 0.195 FPS
Count of elements : 1056
Stream size : 31.8 KiB (0%)
Language : Polish
Default : No
Forced : No

Text #18
ID : 21
Format : UTF-8
Codec ID : S_TEXT/UTF8
Codec ID/Info : UTF-8 Plain Text
Duration : 1 h 29 min
Bit rate : 47 b/s
Frame rate : 0.177 FPS
Count of elements : 948
Stream size : 30.9 KiB (0%)
Title : Brazil
Language : Portuguese (BR)
Default : No
Forced : No

Text #19
ID : 22
Format : UTF-8
Codec ID : S_TEXT/UTF8
Codec ID/Info : UTF-8 Plain Text
Duration : 1 h 30 min
Bit rate : 45 b/s
Frame rate : 0.194 FPS
Count of elements : 1055
Stream size : 30.1 KiB (0%)
Language : Portuguese (PT)
Default : No
Forced : No

Text #20
ID : 23
Format : UTF-8
Codec ID : S_TEXT/UTF8
Codec ID/Info : UTF-8 Plain Text
Duration : 1 h 26 min
Bit rate : 44 b/s
Frame rate : 0.152 FPS
Count of elements : 793
Stream size : 28.3 KiB (0%)
Language : Romanian
Default : No
Forced : No

Text #21
ID : 24
Format : UTF-8
Codec ID : S_TEXT/UTF8
Codec ID/Info : UTF-8 Plain Text
Duration : 1 h 26 min
Bit rate : 45 b/s
Frame rate : 0.206 FPS
Count of elements : 1071
Stream size : 28.6 KiB (0%)
Language : Swedish
Default : No
Forced : No

Text #22
ID : 25
Format : UTF-8
Codec ID : S_TEXT/UTF8
Codec ID/Info : UTF-8 Plain Text
Duration : 1 h 30 min
Bit rate : 51 b/s
Frame rate : 0.196 FPS
Count of elements : 1059
Stream size : 34.0 KiB (0%)
Language : Turkish
Default : No
Forced : No

Text #23
ID : 26
Format : UTF-8
Codec ID : S_TEXT/UTF8
Codec ID/Info : UTF-8 Plain Text
Duration : 1 h 29 min
Bit rate : 40 b/s
Frame rate : 0.207 FPS
Count of elements : 1110
Stream size : 26.5 KiB (0%)
Title : 简体
Language : Chinese (Simplied)

Default : No
Forced : No

Text #24
ID : 27
Format : UTF-8
Codec ID : S_TEXT/UTF8
Codec ID/Info : UTF-8 Plain Text
Duration : 1 h 32 min
Bit rate : 46 b/s
Frame rate : 0.190 FPS
Count of elements : 1060
Stream size : 31.5 KiB (0%)
Title : 繁体
Language : Chinese (Traditional)

Default : No
Forced : No


推荐使用qBittorrent、uTorrent、BitComet等下载软件,有条件的推荐115或会员软件下载!

下载地址


游客,如果您要查看本帖隐藏内容请回复





上一篇:复仇少女组 [简繁中字] / Do Revenge‎ (2022) 4K高清版本下载
下一篇:圣诞有你 [简繁中字]/ Christmas with You‎ (2022) 4K高清版本下载
回复

使用道具 举报

您需要登录后才可以回帖 登录 | 立即注册

本版积分规则

精彩图文
Archiver|手机版|TAG|Sitemap|新帖|专题|联系我们:邮箱: 4kjia.com@gmail.com   

4k家园   ©2019