[4K电影] 圣诞有你 [简繁中字]/ Christmas with You‎ (2022) 4K高清版本下载

[复制链接]

主题

帖子

0

积分

超级版主

Rank: 8Rank: 8

积分
0
 楼主| 发表于 2023-1-4 16:30:00 | 显示全部楼层 |阅读模式

QQ图片20230104125544_副本.png

◎译  名 圣诞有你/与你共度圣诞
◎片  名 Christmas with You
◎年  代 2022
◎产  地 美国
◎类  别 喜剧/爱情
◎语  言 英语
◎上映日期 2022-11-17(美国网络)
◎IMDb评分 5.6/10 from 6141 users 更新 : 2023-01-01
◎IMDb链接 https://www.imdb.com/title/tt15824322/
◎豆瓣评分 5.7/10 from 124 users 更新 : 2023-01-01
◎豆瓣链接 https://movie.douban.com/subject/36075773/
◎导  演 Gabriela Tagliavini Gabriela Tagliavini
◎编  剧 迈克尔·瓦拉蒂 Michael Varrati
◎主  演 小弗雷迪·普林兹 Freddie Prinze Jr.
                  埃美·加西亚 Aimee Garcia


◎简  介


  感觉职业倦怠的流行歌星安吉丽娜逃脱,在纽约小镇满足了一个年轻粉丝的愿望,在那里她不仅找到了振兴事业的灵感,还找到了真爱。

Video
ID : 1
Format : HEVC
Format/Info : High Efficiency Video Coding
Format profile : Main 10@L5@Main
HDR format : Dolby Vision, Version 1.0, dvhe.05.06, BL+RPU
Codec ID : dvhe
Codec ID/Info : High Efficiency Video Coding with Dolby Vision
Duration : 1 h 30 min
Bit rate : 18.9 Mb/s
Width : 3 840 pixels
Height : 2 160 pixels
Display aspect ratio : 16:9
Frame rate mode : Constant
Frame rate : 24.000 FPS
Color space : YUV
Chroma subsampling : 4:2:0
Bit depth : 10 bits
Bits/(Pixel*Frame) : 0.095
Stream size : 12.0 GiB (96%)
Default : Yes
Alternate group : 1
Encoded date : UTC 2023-01-03 12:54:06
Tagged date : UTC 2023-01-03 12:56:37
Color range : Full
Codec configuration box : hvcC+dvcC

Audio
ID : 2
Format : E-AC-3 JOC
Format/Info : Enhanced AC-3 with Joint Object Coding
Commercial name : Dolby Digital Plus with Dolby Atmos
Codec ID : ec-3
Duration : 1 h 30 min
Bit rate mode : Constant
Bit rate : 768 kb/s
Maximum bit rate : 811 kb/s
Channel(s) : 6 channels
Channel layout : L R C LFE Ls Rs
Sampling rate : 48.0 kHz
Frame rate : 31.250 FPS (1536 SPF)
Compression mode : Lossy
Stream size : 497 MiB (4%)
Title : English
Language : English
Service kind : Complete Main
Default : Yes
Alternate group : 1
Tagged date : UTC 2023-01-03 12:56:37
Complexity index : Not present / 16
Number of dynamic objects : 15
Bed channel count : 1 channel
Bed channel configuration : LFE

Text #1
ID : 3
Format : Timed Text
Codec ID : tx3g
Duration : 1 h 26 min
Bit rate mode : Variable
Bit rate : 89 b/s
Frame rate : 0.619 FPS
Stream size : 56.5 KiB (0%)
Title : English
Language : English
Forced : No
Encoded date : UTC 2023-01-03 12:56:30
Tagged date : UTC 2023-01-03 12:56:37

Text #2
ID : 4
Format : Timed Text
Codec ID : tx3g
Duration : 1 h 23 min
Bit rate mode : Variable
Bit rate : 70 b/s
Frame rate : 0.504 FPS
Stream size : 42.8 KiB (0%)
Title : English
Language : English
Forced : No
Encoded date : UTC 2023-01-03 12:56:30
Tagged date : UTC 2023-01-03 12:56:37

Text #3
ID : 5
Format : Timed Text
Codec ID : tx3g
Duration : 1 h 28 min
Bit rate mode : Variable
Bit rate : 111 b/s
Frame rate : 0.486 FPS
Stream size : 71.9 KiB (0%)
Title : Arabic
Language : Arabic
Forced : No
Encoded date : UTC 2023-01-03 12:56:30
Tagged date : UTC 2023-01-03 12:56:37

Text #4
ID : 6
Format : Timed Text
Codec ID : tx3g
Duration : 1 h 28 min
Bit rate mode : Variable
Bit rate : 72 b/s
Frame rate : 0.492 FPS
Stream size : 46.8 KiB (0%)
Title : 简体
Language : Chinese (Simplied)

Forced : No
Encoded date : UTC 2023-01-03 12:56:30
Tagged date : UTC 2023-01-03 12:56:37

Text #5
ID : 7
Format : Timed Text
Codec ID : tx3g
Duration : 1 h 28 min
Bit rate mode : Variable
Bit rate : 68 b/s
Frame rate : 0.494 FPS
Stream size : 44.2 KiB (0%)
Title : 繁体
Language : Chinese (Traditional)

Forced : No
Encoded date : UTC 2023-01-03 12:56:30
Tagged date : UTC 2023-01-03 12:56:37

Text #6
ID : 8
Format : Timed Text
Codec ID : tx3g
Duration : 1 h 28 min
Bit rate mode : Variable
Bit rate : 56 b/s
Frame rate : 0.448 FPS
Stream size : 36.7 KiB (0%)
Title : Croatian
Language : Croatian
Forced : No
Encoded date : UTC 2023-01-03 12:56:30
Tagged date : UTC 2023-01-03 12:56:37

Text #7
ID : 9
Format : Timed Text
Codec ID : tx3g
Duration : 1 h 23 min
Bit rate mode : Variable
Bit rate : 65 b/s
Frame rate : 0.503 FPS
Stream size : 40.1 KiB (0%)
Title : Czech
Language : Czech
Forced : No
Encoded date : UTC 2023-01-03 12:56:31
Tagged date : UTC 2023-01-03 12:56:37

Text #8
ID : 10
Format : Timed Text
Codec ID : tx3g
Duration : 1 h 26 min
Bit rate mode : Variable
Bit rate : 88 b/s
Frame rate : 0.619 FPS
Stream size : 55.5 KiB (0%)
Title : Czech
Language : Czech
Forced : No
Encoded date : UTC 2023-01-03 12:56:31
Tagged date : UTC 2023-01-03 12:56:37

Text #9
ID : 11
Format : Timed Text
Codec ID : tx3g
Duration : 1 h 28 min
Bit rate mode : Variable
Bit rate : 60 b/s
Frame rate : 0.458 FPS
Stream size : 38.8 KiB (0%)
Title : Danish
Language : Danish
Forced : No
Encoded date : UTC 2023-01-03 12:56:31
Tagged date : UTC 2023-01-03 12:56:37

Text #10
ID : 12
Format : Timed Text
Codec ID : tx3g
Duration : 1 h 28 min
Bit rate mode : Variable
Bit rate : 61 b/s
Frame rate : 0.438 FPS
Stream size : 39.6 KiB (0%)
Title : Dutch
Language : Dutch
Forced : No
Encoded date : UTC 2023-01-03 12:56:31
Tagged date : UTC 2023-01-03 12:56:37

Text #11
ID : 13
Format : Timed Text
Codec ID : tx3g
Duration : 1 h 28 min
Bit rate mode : Variable
Bit rate : 61 b/s
Frame rate : 0.479 FPS
Stream size : 39.3 KiB (0%)
Title : Filipino
Language : phi
Forced : No
Encoded date : UTC 2023-01-03 12:56:31
Tagged date : UTC 2023-01-03 12:56:37

Text #12
ID : 14
Format : Timed Text
Codec ID : tx3g
Duration : 1 h 28 min
Bit rate mode : Variable
Bit rate : 60 b/s
Frame rate : 0.404 FPS
Stream size : 38.6 KiB (0%)
Title : Finnish
Language : Finnish
Forced : No
Encoded date : UTC 2023-01-03 12:56:31
Tagged date : UTC 2023-01-03 12:56:37

Text #13
ID : 15
Format : Timed Text
Codec ID : tx3g
Duration : 1 h 28 min
Bit rate mode : Variable
Bit rate : 60 b/s
Frame rate : 0.461 FPS
Stream size : 38.8 KiB (0%)
Title : French
Language : French
Forced : No
Encoded date : UTC 2023-01-03 12:56:31
Tagged date : UTC 2023-01-03 12:56:37

Text #14
ID : 16
Format : Timed Text
Codec ID : tx3g
Duration : 1 h 28 min
Bit rate mode : Variable
Bit rate : 65 b/s
Frame rate : 0.469 FPS
Stream size : 41.9 KiB (0%)
Title : German
Language : German
Forced : No
Encoded date : UTC 2023-01-03 12:56:31
Tagged date : UTC 2023-01-03 12:56:37

Text #15
ID : 17
Format : Timed Text
Codec ID : tx3g
Duration : 1 h 28 min
Bit rate mode : Variable
Bit rate : 99 b/s
Frame rate : 0.460 FPS
Stream size : 64.3 KiB (0%)
Title : Greek
Language : Greek
Forced : No
Encoded date : UTC 2023-01-03 12:56:31
Tagged date : UTC 2023-01-03 12:56:37

Text #16
ID : 18
Format : Timed Text
Codec ID : tx3g
Duration : 1 h 24 min
Bit rate mode : Variable
Bit rate : 102 b/s
Frame rate : 0.490 FPS
Stream size : 63.0 KiB (0%)
Title : Hebrew
Language : Hebrew
Forced : No
Encoded date : UTC 2023-01-03 12:56:31
Tagged date : UTC 2023-01-03 12:56:37

Text #17
ID : 19
Format : Timed Text
Codec ID : tx3g
Duration : 1 h 24 min
Bit rate mode : Variable
Bit rate : 71 b/s
Frame rate : 0.530 FPS
Stream size : 43.8 KiB (0%)
Title : Hungarian
Language : Hungarian
Forced : No
Encoded date : UTC 2023-01-03 12:56:31
Tagged date : UTC 2023-01-03 12:56:37

Text #18
ID : 20
Format : Timed Text
Codec ID : tx3g
Duration : 1 h 24 min
Bit rate mode : Variable
Bit rate : 64 b/s
Frame rate : 0.487 FPS
Stream size : 39.8 KiB (0%)
Title : Hungarian
Language : Hungarian
Forced : No
Encoded date : UTC 2023-01-03 12:56:32
Tagged date : UTC 2023-01-03 12:56:37

Text #19
ID : 21
Format : Timed Text
Codec ID : tx3g
Duration : 1 h 28 min
Bit rate mode : Variable
Bit rate : 64 b/s
Frame rate : 0.476 FPS
Stream size : 41.5 KiB (0%)
Title : Indonesian
Language : Indonesian
Forced : No
Encoded date : UTC 2023-01-03 12:56:32
Tagged date : UTC 2023-01-03 12:56:37

Text #20
ID : 22
Format : Timed Text
Codec ID : tx3g
Duration : 1 h 28 min
Bit rate mode : Variable
Bit rate : 61 b/s
Frame rate : 0.467 FPS
Stream size : 39.5 KiB (0%)
Title : Italian
Language : Italian
Forced : No
Encoded date : UTC 2023-01-03 12:56:32
Tagged date : UTC 2023-01-03 12:56:37

Text #21
ID : 23
Format : Timed Text
Codec ID : tx3g
Duration : 1 h 28 min
Bit rate mode : Variable
Bit rate : 72 b/s
Frame rate : 0.520 FPS
Stream size : 46.4 KiB (0%)
Title : Japanese
Language : Japanese
Forced : No
Encoded date : UTC 2023-01-03 12:56:32
Tagged date : UTC 2023-01-03 12:56:37

Text #22
ID : 24
Format : Timed Text
Codec ID : tx3g
Duration : 1 h 28 min
Bit rate mode : Variable
Bit rate : 78 b/s
Frame rate : 0.486 FPS
Stream size : 50.5 KiB (0%)
Title : Korean
Language : Korean
Forced : No
Encoded date : UTC 2023-01-03 12:56:32
Tagged date : UTC 2023-01-03 12:56:37

Text #23
ID : 25
Format : Timed Text
Codec ID : tx3g
Duration : 1 h 28 min
Bit rate mode : Variable
Bit rate : 62 b/s
Frame rate : 0.484 FPS
Stream size : 40.1 KiB (0%)
Title : Malay
Language : Malay
Forced : No
Encoded date : UTC 2023-01-03 12:56:32
Tagged date : UTC 2023-01-03 12:56:37

Text #24
ID : 26
Format : Timed Text
Codec ID : tx3g
Duration : 1 h 28 min
Bit rate mode : Variable
Bit rate : 58 b/s
Frame rate : 0.418 FPS
Stream size : 37.9 KiB (0%)
Title : Norwegian
Language : Norwegian Bokmal
Forced : No
Encoded date : UTC 2023-01-03 12:56:32
Tagged date : UTC 2023-01-03 12:56:37

Text #25
ID : 27
Format : Timed Text
Codec ID : tx3g
Duration : 1 h 28 min
Bit rate mode : Variable
Bit rate : 55 b/s
Frame rate : 0.423 FPS
Stream size : 35.9 KiB (0%)
Title : Polish
Language : Polish
Forced : No
Encoded date : UTC 2023-01-03 12:56:32
Tagged date : UTC 2023-01-03 12:56:37

Text #26
ID : 28
Format : Timed Text
Codec ID : tx3g
Duration : 1 h 24 min
Bit rate mode : Variable
Bit rate : 67 b/s
Frame rate : 0.453 FPS
Stream size : 41.8 KiB (0%)
Title : Portuguese
Language : Portuguese
Forced : No
Encoded date : UTC 2023-01-03 12:56:32
Tagged date : UTC 2023-01-03 12:56:37

Text #27
ID : 29
Format : Timed Text
Codec ID : tx3g
Duration : 1 h 28 min
Bit rate mode : Variable
Bit rate : 79 b/s
Frame rate : 0.519 FPS
Stream size : 51.0 KiB (0%)
Title : Portuguese
Language : Portuguese
Forced : No
Encoded date : UTC 2023-01-03 12:56:32
Tagged date : UTC 2023-01-03 12:56:37

Text #28
ID : 30
Format : Timed Text
Codec ID : tx3g
Duration : 1 h 28 min
Bit rate mode : Variable
Bit rate : 59 b/s
Frame rate : 0.470 FPS
Stream size : 38.5 KiB (0%)
Title : Portuguese
Language : Portuguese
Forced : No
Encoded date : UTC 2023-01-03 12:56:32
Tagged date : UTC 2023-01-03 12:56:37

Text #29
ID : 31
Format : Timed Text
Codec ID : tx3g
Duration : 1 h 28 min
Bit rate mode : Variable
Bit rate : 69 b/s
Frame rate : 0.481 FPS
Stream size : 45.0 KiB (0%)
Title : Romanian
Language : Romanian
Forced : No
Encoded date : UTC 2023-01-03 12:56:33
Tagged date : UTC 2023-01-03 12:56:37

Text #30
ID : 32
Format : Timed Text
Codec ID : tx3g
Duration : 1 h 28 min
Bit rate mode : Variable
Bit rate : 95 b/s
Frame rate : 0.484 FPS
Stream size : 61.8 KiB (0%)
Title : Russian
Language : Russian
Forced : No
Encoded date : UTC 2023-01-03 12:56:33
Tagged date : UTC 2023-01-03 12:56:37

Text #31
ID : 33
Format : Timed Text
Codec ID : tx3g
Duration : 1 h 28 min
Bit rate mode : Variable
Bit rate : 59 b/s
Frame rate : 0.476 FPS
Stream size : 38.3 KiB (0%)
Title : Spanish-Basque
Language : Basque
Forced : No
Encoded date : UTC 2023-01-03 12:56:33
Tagged date : UTC 2023-01-03 12:56:37

Text #32
ID : 34
Format : Timed Text
Codec ID : tx3g
Duration : 1 h 28 min
Bit rate mode : Variable
Bit rate : 58 b/s
Frame rate : 0.471 FPS
Stream size : 37.8 KiB (0%)
Title : Spanish-Catalan
Language : Catalan
Forced : No
Encoded date : UTC 2023-01-03 12:56:33
Tagged date : UTC 2023-01-03 12:56:37

Text #33
ID : 35
Format : Timed Text
Codec ID : tx3g
Duration : 1 h 28 min
Bit rate mode : Variable
Bit rate : 58 b/s
Frame rate : 0.457 FPS
Stream size : 37.8 KiB (0%)
Title : Spanish-EU
Language : Spanish
Forced : No
Encoded date : UTC 2023-01-03 12:56:33
Tagged date : UTC 2023-01-03 12:56:37

Text #34
ID : 36
Format : Timed Text
Codec ID : tx3g
Duration : 1 h 28 min
Bit rate mode : Variable
Bit rate : 87 b/s
Frame rate : 0.590 FPS
Stream size : 56.7 KiB (0%)
Title : Spanish-EU
Language : Spanish
Forced : No
Encoded date : UTC 2023-01-03 12:56:33
Tagged date : UTC 2023-01-03 12:56:37

Text #35
ID : 37
Format : Timed Text
Codec ID : tx3g
Duration : 1 h 28 min
Bit rate mode : Variable
Bit rate : 65 b/s
Frame rate : 0.460 FPS
Stream size : 42.3 KiB (0%)
Title : Spanish-EU
Language : Spanish
Forced : No
Encoded date : UTC 2023-01-03 12:56:33
Tagged date : UTC 2023-01-03 12:56:37

Text #36
ID : 38
Format : Timed Text
Codec ID : tx3g
Duration : 1 h 28 min
Bit rate mode : Variable
Bit rate : 59 b/s
Frame rate : 0.473 FPS
Stream size : 38.1 KiB (0%)
Title : Spanish-Galician
Language : Galician
Forced : No
Encoded date : UTC 2023-01-03 12:56:33
Tagged date : UTC 2023-01-03 12:56:37

Text #37
ID : 39
Format : Timed Text
Codec ID : tx3g
Duration : 1 h 28 min
Bit rate mode : Variable
Bit rate : 64 b/s
Frame rate : 0.422 FPS
Stream size : 41.2 KiB (0%)
Title : Swedish
Language : Swedish
Forced : No
Encoded date : UTC 2023-01-03 12:56:33
Tagged date : UTC 2023-01-03 12:56:37

Text #38
ID : 40
Format : Timed Text
Codec ID : tx3g
Duration : 1 h 28 min
Bit rate mode : Variable
Bit rate : 160 b/s
Frame rate : 0.492 FPS
Stream size : 104 KiB (0%)
Title : Thai
Language : Thai
Forced : No
Encoded date : UTC 2023-01-03 12:56:34
Tagged date : UTC 2023-01-03 12:56:37

Text #39
ID : 41
Format : Timed Text
Codec ID : tx3g
Duration : 1 h 28 min
Bit rate mode : Variable
Bit rate : 60 b/s
Frame rate : 0.468 FPS
Stream size : 39.0 KiB (0%)
Title : Turkish
Language : Turkish
Forced : No
Encoded date : UTC 2023-01-03 12:56:35
Tagged date : UTC 2023-01-03 12:56:37

Text #40
ID : 42
Format : Timed Text
Codec ID : tx3g
Duration : 1 h 28 min
Bit rate mode : Variable
Bit rate : 95 b/s
Frame rate : 0.491 FPS
Stream size : 61.3 KiB (0%)
Title : Ukrainian
Language : Ukrainian
Forced : No
Encoded date : UTC 2023-01-03 12:56:37
Tagged date : UTC 2023-01-03 12:56:37

Text #41
ID : 43
Format : Timed Text
Codec ID : tx3g
Duration : 1 h 28 min
Bit rate mode : Variable
Bit rate : 86 b/s
Frame rate : 0.488 FPS
Stream size : 55.5 KiB (0%)
Title : Vietnamese
Language : Vietnamese
Forced : No
Encoded date : UTC 2023-01-03 12:56:37
Tagged date : UTC 2023-01-03 12:56:37


推荐使用qBittorrent、uTorrent、BitComet等下载软件,有条件的推荐115或会员软件下载!

下载地址


游客,如果您要查看本帖隐藏内容请回复

游客,如果您要查看本帖隐藏内容请回复

游客,如果您要查看本帖隐藏内容请回复

游客,如果您要查看本帖隐藏内容请回复

游客,如果您要查看本帖隐藏内容请回复







上一篇:亲爱的,我把孩子缩小了 [简繁中字] (1988) 4K高清版本下载
下一篇:办公室圣诞派对 / Office Christmas Party (2016) 4K高清版本下载
回复

使用道具 举报

您需要登录后才可以回帖 登录 | 立即注册

本版积分规则

精彩图文
Archiver|手机版|TAG|Sitemap|新帖|专题|联系我们:邮箱: 4kjia.com@gmail.com   

4k家园   ©2019