[4K电影] 唬胆特工 [简繁中字] / The.Man.from.Toronto (2022) 4K高清版本下载

[复制链接]

主题

帖子

0

积分

超级版主

Rank: 8Rank: 8

积分
0
 楼主| 发表于 2023-1-4 21:30:00 | 显示全部楼层 |阅读模式
QQ图片20230104204656_副本.png

◎译  名 唬胆特工/来自多伦多的男人/多伦多来的男人/换命大龙凤(港)/玩命大临演(台)
◎片  名 The Man from Toronto
◎年  代 2022
◎产  地 美国
◎类  别 喜剧/动作/犯罪
◎语  言 英语
◎上映日期 2022-12-23(中国大陆)/2022-06-24(美国网络)
◎IMDb评分 5.8/10 from 48559 users 更新 : 2022-12-31
◎IMDb链接 https://www.imdb.com/title/tt11671006/
◎豆瓣评分 6.4/10 from 9837users users 更新 : 2023-01-04
◎豆瓣链接 https://movie.douban.com/subject/34959527/
◎导  演 帕特里克·休斯 Patrick Hughes
◎编  剧 罗比·福克斯 Robbie Fox / 克里斯·布雷姆纳 Chris Bremner / 杰森·布鲁门塔尔 Jason Blumenthal
◎主  演 凯文·哈特 Kevin Hart
       伍迪·哈里森 Woody Harrelson
       凯莉·库柯 Kaley Cuoco
       贾思敏·马修斯 Jasmine Mathews
       艾伦·巴金 Ellen Barkin
       莱拉·罗兰 Lela Loren
       凯特·德拉蒙德 Kate Drummond
       罗布·阿切尔 Rob Archer
       皮尔森·福德 Pierson Fode
       山下智久 Tomohisa Yamashita
       罗尼·罗 Ronnie Rowe
       杰森·麦克唐纳 Jason MacDonald
       简卡洛斯·卡纳拉 Jencarlos Canela
       达林·贝克 Darrin Baker
       费利佩·奥凯 Felipe Aukai
       James Collins James Collins
       格里莎·帕斯特纳克 Grisha Pasternak
       特洛伊·布德罗 Troy Boudreau
       辛西娅·罗恩 Cynthia Ron
       吉姆·查德 Jim Chad
       梅兰妮·利伯德 Melanie Liburd


◎简  介


  嘴强废柴泰迪最擅长的事情就是搞砸一切,他想要给妻子制造生日惊喜,却阴差阳错误入黑帮犯罪现场,被当成了让人闻风丧胆的冷面杀手“多伦多来的男人”。为了活命,泰迪无奈将错就错,假扮杀手执行任务。而真正的冷面杀手只能和泰迪临时组队,开启狐假虎威、啼笑皆非的任务模式。两人笑料百出,危险重重的亡命囧途就此开始。
Video
ID : 1
Format : HEVC
Format/Info : High Efficiency Video Coding
Format profile : Main 10@L5@Main
HDR format : Dolby Vision, Version 1.0, dvhe.08.06, BL+RPU, HDR10 compatible / SMPTE ST 2086, HDR10 compatible
Codec ID : V_MPEGH/ISO/HEVC
Duration : 1 h 49 min
Bit rate : 12.6 Mb/s
Width : 3 840 pixels
Height : 2 160 pixels
Display aspect ratio : 16:9
Frame rate mode : Constant
Frame rate : 23.976 (24000/1001) FPS
Color space : YUV
Chroma subsampling : 4:2:0 (Type 2)
Bit depth : 10 bits
Bits/(Pixel*Frame) : 0.063
Stream size : 9.66 GiB (94%)
Language : English
Default : Yes
Forced : No
Color range : Limited
Color primaries : BT.2020
Transfer characteristics : PQ
Matrix coefficients : BT.2020 non-constant
Mastering display color primaries : Display P3
Mastering display luminance : min: 0.0050 cd/m2, max: 4000 cd/m2
Maximum Content Light Level : 1038 cd/m2
Maximum Frame-Average Light Level : 184 cd/m2

Audio
ID : 2
Format : E-AC-3 JOC
Format/Info : Enhanced AC-3 with Joint Object Coding
Commercial name : Dolby Digital Plus with Dolby Atmos
Codec ID : A_EAC3
Duration : 1 h 52 min
Bit rate mode : Constant
Bit rate : 768 kb/s
Channel(s) : 6 channels
Channel layout : L R C LFE Ls Rs
Sampling rate : 48.0 kHz
Frame rate : 31.250 FPS (1536 SPF)
Compression mode : Lossy
Stream size : 616 MiB (6%)
Language : English
Service kind : Complete Main
Default : Yes
Forced : No
Complexity index : 16
Number of dynamic objects : 15
Bed channel count : 1 channel
Bed channel configuration : LFE

Text #1
ID : 3
Format : UTF-8
Codec ID : S_TEXT/UTF8
Codec ID/Info : UTF-8 Plain Text
Duration : 16 s 350 ms
Bit rate : 33 b/s
Frame rate : 0.245 FPS
Count of elements : 4
Stream size : 68.0 Bytes (0%)
Title : Forced
Language : English
Default : Yes
Forced : Yes

Text #2
ID : 4
Format : UTF-8
Codec ID : S_TEXT/UTF8
Codec ID/Info : UTF-8 Plain Text
Duration : 1 h 44 min
Bit rate : 80 b/s
Frame rate : 0.309 FPS
Count of elements : 1927
Stream size : 61.7 KiB (0%)
Language : English
Default : No
Forced : No

Text #3
ID : 5
Format : UTF-8
Codec ID : S_TEXT/UTF8
Codec ID/Info : UTF-8 Plain Text
Duration : 1 h 44 min
Bit rate : 92 b/s
Frame rate : 0.364 FPS
Count of elements : 2283
Stream size : 70.9 KiB (0%)
Title : SDH
Language : English
Default : No
Forced : No

Text #4
ID : 6
Format : UTF-8
Codec ID : S_TEXT/UTF8
Codec ID/Info : UTF-8 Plain Text
Duration : 1 h 48 min
Bit rate : 123 b/s
Frame rate : 0.292 FPS
Count of elements : 1896
Stream size : 97.8 KiB (0%)
Language : Arabic
Default : No
Forced : No

Text #5
ID : 7
Format : UTF-8
Codec ID : S_TEXT/UTF8
Codec ID/Info : UTF-8 Plain Text
Duration : 1 h 48 min
Bit rate : 70 b/s
Frame rate : 0.285 FPS
Count of elements : 1853
Stream size : 56.1 KiB (0%)
Language : Czech
Default : No
Forced : No

Text #6
ID : 8
Format : UTF-8
Codec ID : S_TEXT/UTF8
Codec ID/Info : UTF-8 Plain Text
Duration : 1 h 48 min
Bit rate : 67 b/s
Frame rate : 0.274 FPS
Count of elements : 1783
Stream size : 53.5 KiB (0%)
Language : Danish
Default : No
Forced : No

Text #7
ID : 9
Format : UTF-8
Codec ID : S_TEXT/UTF8
Codec ID/Info : UTF-8 Plain Text
Duration : 1 h 48 min
Bit rate : 72 b/s
Frame rate : 0.272 FPS
Count of elements : 1772
Stream size : 57.6 KiB (0%)
Language : German
Default : No
Forced : No

Text #8
ID : 10
Format : UTF-8
Codec ID : S_TEXT/UTF8
Codec ID/Info : UTF-8 Plain Text
Duration : 1 h 48 min
Bit rate : 117 b/s
Frame rate : 0.284 FPS
Count of elements : 1847
Stream size : 92.9 KiB (0%)
Language : Greek
Default : No
Forced : No

Text #9
ID : 11
Format : UTF-8
Codec ID : S_TEXT/UTF8
Codec ID/Info : UTF-8 Plain Text
Duration : 1 h 44 min
Bit rate : 79 b/s
Frame rate : 0.290 FPS
Count of elements : 1810
Stream size : 60.5 KiB (0%)
Title : Latin American
Language : Spanish (Latin America)
Default : No
Forced : No

Text #10
ID : 12
Format : UTF-8
Codec ID : S_TEXT/UTF8
Codec ID/Info : UTF-8 Plain Text
Duration : 1 h 48 min
Bit rate : 70 b/s
Frame rate : 0.266 FPS
Count of elements : 1728
Stream size : 55.8 KiB (0%)
Title : Latin American
Language : Spanish (Latin America)
Default : No
Forced : No

Text #11
ID : 13
Format : UTF-8
Codec ID : S_TEXT/UTF8
Codec ID/Info : UTF-8 Plain Text
Duration : 1 h 48 min
Bit rate : 63 b/s
Frame rate : 0.279 FPS
Count of elements : 1815
Stream size : 50.4 KiB (0%)
Language : Spanish (ES)
Default : No
Forced : No

Text #12
ID : 14
Format : UTF-8
Codec ID : S_TEXT/UTF8
Codec ID/Info : UTF-8 Plain Text
Duration : 1 h 48 min
Bit rate : 68 b/s
Frame rate : 0.234 FPS
Count of elements : 1520
Stream size : 54.6 KiB (0%)
Language : Finnish
Default : No
Forced : No

Text #13
ID : 15
Format : UTF-8
Codec ID : S_TEXT/UTF8
Codec ID/Info : UTF-8 Plain Text
Duration : 1 h 48 min
Bit rate : 67 b/s
Frame rate : 0.287 FPS
Count of elements : 1866
Stream size : 53.8 KiB (0%)
Language : fil
Default : No
Forced : No

Text #14
ID : 16
Format : UTF-8
Codec ID : S_TEXT/UTF8
Codec ID/Info : UTF-8 Plain Text
Duration : 1 h 48 min
Bit rate : 68 b/s
Frame rate : 0.272 FPS
Count of elements : 1769
Stream size : 54.0 KiB (0%)
Language : French
Default : No
Forced : No

Text #15
ID : 17
Format : UTF-8
Codec ID : S_TEXT/UTF8
Codec ID/Info : UTF-8 Plain Text
Duration : 1 h 48 min
Bit rate : 116 b/s
Frame rate : 0.287 FPS
Count of elements : 1864
Stream size : 92.5 KiB (0%)
Language : Hebrew
Default : No
Forced : No

Text #16
ID : 18
Format : UTF-8
Codec ID : S_TEXT/UTF8
Codec ID/Info : UTF-8 Plain Text
Duration : 1 h 48 min
Bit rate : 60 b/s
Frame rate : 0.272 FPS
Count of elements : 1777
Stream size : 48.6 KiB (0%)
Language : Croatian
Default : No
Forced : No

Text #17
ID : 19
Format : UTF-8
Codec ID : S_TEXT/UTF8
Codec ID/Info : UTF-8 Plain Text
Duration : 1 h 48 min
Bit rate : 69 b/s
Frame rate : 0.285 FPS
Count of elements : 1856
Stream size : 54.8 KiB (0%)
Language : Hungarian
Default : No
Forced : No

Text #18
ID : 20
Format : UTF-8
Codec ID : S_TEXT/UTF8
Codec ID/Info : UTF-8 Plain Text
Duration : 1 h 48 min
Bit rate : 68 b/s
Frame rate : 0.285 FPS
Count of elements : 1853
Stream size : 54.1 KiB (0%)
Language : Indonesian
Default : No
Forced : No

Text #19
ID : 21
Format : UTF-8
Codec ID : S_TEXT/UTF8
Codec ID/Info : UTF-8 Plain Text
Duration : 1 h 48 min
Bit rate : 68 b/s
Frame rate : 0.293 FPS
Count of elements : 1913
Stream size : 54.7 KiB (0%)
Language : Italian
Default : No
Forced : No

Text #20
ID : 22
Format : UTF-8
Codec ID : S_TEXT/UTF8
Codec ID/Info : UTF-8 Plain Text
Duration : 1 h 48 min
Bit rate : 61 b/s
Frame rate : 0.299 FPS
Count of elements : 1947
Stream size : 48.9 KiB (0%)
Language : Japanese
Default : No
Forced : No

Text #21
ID : 23
Format : UTF-8
Codec ID : S_TEXT/UTF8
Codec ID/Info : UTF-8 Plain Text
Duration : 1 h 48 min
Bit rate : 88 b/s
Frame rate : 0.294 FPS
Count of elements : 1914
Stream size : 70.1 KiB (0%)
Language : Korean
Default : No
Forced : No

Text #22
ID : 24
Format : UTF-8
Codec ID : S_TEXT/UTF8
Codec ID/Info : UTF-8 Plain Text
Duration : 1 h 48 min
Bit rate : 69 b/s
Frame rate : 0.284 FPS
Count of elements : 1849
Stream size : 54.9 KiB (0%)
Language : Malay
Default : No
Forced : No

Text #23
ID : 25
Format : UTF-8
Codec ID : S_TEXT/UTF8
Codec ID/Info : UTF-8 Plain Text
Duration : 1 h 48 min
Bit rate : 65 b/s
Frame rate : 0.232 FPS
Count of elements : 1512
Stream size : 51.9 KiB (0%)
Language : Norwegian Bokmal
Default : No
Forced : No

Text #24
ID : 26
Format : UTF-8
Codec ID : S_TEXT/UTF8
Codec ID/Info : UTF-8 Plain Text
Duration : 1 h 44 min
Bit rate : 68 b/s
Frame rate : 0.247 FPS
Count of elements : 1543
Stream size : 52.0 KiB (0%)
Language : Dutch
Default : No
Forced : No

Text #25
ID : 27
Format : UTF-8
Codec ID : S_TEXT/UTF8
Codec ID/Info : UTF-8 Plain Text
Duration : 1 h 48 min
Bit rate : 61 b/s
Frame rate : 0.275 FPS
Count of elements : 1787
Stream size : 48.8 KiB (0%)
Language : Polish
Default : No
Forced : No

Text #26
ID : 28
Format : UTF-8
Codec ID : S_TEXT/UTF8
Codec ID/Info : UTF-8 Plain Text
Duration : 1 h 44 min
Bit rate : 83 b/s
Frame rate : 0.299 FPS
Count of elements : 1864
Stream size : 63.3 KiB (0%)
Title : Brazilian
Language : Portuguese (BR)
Default : No
Forced : No

Text #27
ID : 29
Format : UTF-8
Codec ID : S_TEXT/UTF8
Codec ID/Info : UTF-8 Plain Text
Duration : 1 h 47 min
Bit rate : 69 b/s
Frame rate : 0.285 FPS
Count of elements : 1838
Stream size : 54.9 KiB (0%)
Title : Brazilian
Language : Portuguese (BR)
Default : No
Forced : No

Text #28
ID : 30
Format : UTF-8
Codec ID : S_TEXT/UTF8
Codec ID/Info : UTF-8 Plain Text
Duration : 1 h 48 min
Bit rate : 70 b/s
Frame rate : 0.282 FPS
Count of elements : 1835
Stream size : 55.9 KiB (0%)
Language : Portuguese (PT)
Default : No
Forced : No

Text #29
ID : 31
Format : UTF-8
Codec ID : S_TEXT/UTF8
Codec ID/Info : UTF-8 Plain Text
Duration : 1 h 48 min
Bit rate : 76 b/s
Frame rate : 0.253 FPS
Count of elements : 1645
Stream size : 61.0 KiB (0%)
Language : Romanian
Default : No
Forced : No

Text #30
ID : 32
Format : UTF-8
Codec ID : S_TEXT/UTF8
Codec ID/Info : UTF-8 Plain Text
Duration : 1 h 48 min
Bit rate : 110 b/s
Frame rate : 0.284 FPS
Count of elements : 1860
Stream size : 88.3 KiB (0%)
Language : Russian
Default : No
Forced : No

Text #31
ID : 33
Format : UTF-8
Codec ID : S_TEXT/UTF8
Codec ID/Info : UTF-8 Plain Text
Duration : 1 h 48 min
Bit rate : 67 b/s
Frame rate : 0.246 FPS
Count of elements : 1601
Stream size : 53.2 KiB (0%)
Language : Swedish
Default : No
Forced : No

Text #32
ID : 34
Format : UTF-8
Codec ID : S_TEXT/UTF8
Codec ID/Info : UTF-8 Plain Text
Duration : 1 h 48 min
Bit rate : 178 b/s
Frame rate : 0.290 FPS
Count of elements : 1889
Stream size : 142 KiB (0%)
Language : Thai
Default : No
Forced : No

Text #33
ID : 35
Format : UTF-8
Codec ID : S_TEXT/UTF8
Codec ID/Info : UTF-8 Plain Text
Duration : 1 h 48 min
Bit rate : 68 b/s
Frame rate : 0.242 FPS
Count of elements : 1574
Stream size : 54.4 KiB (0%)
Language : Turkish
Default : No
Forced : No

Text #34
ID : 36
Format : UTF-8
Codec ID : S_TEXT/UTF8
Codec ID/Info : UTF-8 Plain Text
Duration : 1 h 48 min
Bit rate : 110 b/s
Frame rate : 0.289 FPS
Count of elements : 1878
Stream size : 88.0 KiB (0%)
Language : Ukrainian
Default : No
Forced : No

Text #35
ID : 37
Format : UTF-8
Codec ID : S_TEXT/UTF8
Codec ID/Info : UTF-8 Plain Text
Duration : 1 h 48 min
Bit rate : 100 b/s
Frame rate : 0.288 FPS
Count of elements : 1875
Stream size : 79.9 KiB (0%)
Language : Vietnamese
Default : No
Forced : No

Text #36
ID : 38
Format : UTF-8
Codec ID : S_TEXT/UTF8
Codec ID/Info : UTF-8 Plain Text
Duration : 1 h 48 min
Bit rate : 75 b/s
Frame rate : 0.291 FPS
Count of elements : 1894
Stream size : 60.1 KiB (0%)
Title : 简体
Language : Chinese (Simplied)

Default : No
Forced : No

Text #37
ID : 39
Format : UTF-8
Codec ID : S_TEXT/UTF8
Codec ID/Info : UTF-8 Plain Text
Duration : 1 h 48 min
Bit rate : 76 b/s
Frame rate : 0.318 FPS
Count of elements : 2066
Stream size : 60.9 KiB (0%)
Title : 繁体
Language : Chinese (Traditional)

Default : No
Forced : No

Menu
01:45:10.000 : en:End Credits


推荐使用qBittorrent、uTorrent、BitComet等下载软件,有条件的推荐115或会员软件下载!

下载地址


游客,如果您要查看本帖隐藏内容请回复

游客,如果您要查看本帖隐藏内容请回复

游客,如果您要查看本帖隐藏内容请回复

游客,如果您要查看本帖隐藏内容请回复







上一篇:布偶的玩意 [简繁中字]/The Great Muppet Caper (1981)4K高清版本下载
下一篇:耍宝警探 [简繁中字] / Loin du périph (2022) 4K高清版本下载
回复

使用道具 举报

您需要登录后才可以回帖 登录 | 立即注册

本版积分规则

精彩图文
Archiver|手机版|TAG|Sitemap|新帖|专题|联系我们:邮箱: 4kjia.com@gmail.com   

4k家园   ©2019