[4K电影] 野猫 [简繁中字] / Wildcat (2022) 4K高清版本下载

[复制链接]

主题

帖子

0

积分

超级版主

Rank: 8Rank: 8

积分
0
 楼主| 发表于 2023-1-4 22:00:02 | 显示全部楼层 |阅读模式
QQ图片20230104204815_副本.png

◎译  名 野猫
◎片  名 Wildcat
◎年  代 2022
◎产  地 美国
◎类  别 纪录片
◎语  言 英语
◎上映日期 2022-09-02(特柳赖德电影节)/2022-12-30(美国)
◎IMDb评分 8.0/10 from 776 users 更新 : 2023-01-04
◎IMDb链接 https://www.imdb.com/title/tt13622204/
◎豆瓣评分 8.5/10 from 133  users 更新 : 2023-01-04
◎豆瓣链接 https://movie.douban.com/subject/36125229/


◎简  介

  英国士兵哈利·特纳(Harry Turner)18岁时被部署到阿富汗。他从战争中归来,是一个破碎的人。他与创伤后应激障碍、抑郁症和自杀念头作斗争,深入秘鲁雨林,在那里他遇到了美国科学家萨曼莎。他们一起照顾一只孤角犀牛,一只小斑点野猫。这部电影部分由哈里和萨曼莎自己拍摄的素材组成,部分由《野猫》(Wildcat)的导演拍摄,后者后来加入了这对组合。人与动物之间的亲密时刻,加上变幻莫测的夜间丛林的精彩镜头,形成了一幅不断与恶魔搏斗的人物情感曲折的肖像。正是在这场斗争中,哈利与这只年轻的野兽建立了联系。他试图拯救犀牛,最重要的是试图拯救自己。事实证明,让动物自力更生是一种放手的练习。当哈利在丛林中引导动物时,他也必须找到回归社会和家庭的道路。
Video
ID : 1
Format : HEVC
Format/Info : High Efficiency Video Coding
Format profile : Main@L5@Main
Codec ID : V_MPEGH/ISO/HEVC
Duration : 1 h 45 min
Bit rate : 10.7 Mb/s
Width : 3 840 pixels
Height : 2 160 pixels
Display aspect ratio : 16:9
Frame rate mode : Constant
Frame rate : 23.976 (24000/1001) FPS
Standard : NTSC
Color space : YUV
Chroma subsampling : 4:2:0
Bit depth : 8 bits
Bits/(Pixel*Frame) : 0.054
Stream size : 7.91 GiB (94%)
Writing library : x265 2.9_elemental+1-9e0607aa5b6f:[Linux][GCC 4.8.5][64 bit] 8bit+10bit+12bit
Encoding settings : cpuid=1111039 / frame-threads=2 / wpp / no-pmode / no-pme / psnr / ssim / log-level=2 / csv / csv-log-level=2 / input-csp=1 / input-res=3840x2160 / interlace=0 / total-frames=0 / level-idc=50 / high-tier=1 / uhd-bd=0 / ref=5 / no-allow-non-conformance / no-repeat-headers / annexb / no-aud / no-hrd / info / hash=0 / no-temporal-layers / no-open-gop / min-keyint=61 / keyint=120 / gop-lookahead=0 / bframes=8 / b-adapt=2 / b-pyramid / bframe-bias=0 / rc-lookahead=120 / lookahead-slices=4 / scenecut=0 / radl=0 / no-intra-refresh / ctu=64 / min-cu-size=8 / rect / amp / max-tu-size=32 / tu-inter-depth=4 / tu-intra-depth=4 / limit-tu=4 / rdoq-level=2 / dynamic-rd=0.00 / no-ssim-rd / signhide / tskip / nr-intra=100 / nr-inter=600 / no-constrained-intra / strong-intra-smoothing / max-merge=3 / limit-refs=3 / limit-modes / me=3 / subme=3 / merange=57 / temporal-mvp / weightp / weightb / no-analyze-src-pics / deblock=0:0 / no-sao / no-sao-non-deblock / rd=4 / no-early-skip / no-rskip / no-fast-intra / tskip-fast / no-cu-lossless / b-intra / no-splitrd-skip / rdpenalty=0 / psy-rd=4.00 / psy-rdoq=10.00 / no-rd-refine / no-lossless / cbqpoffs=0 / crqpoffs=0 / rc=crf / crf=25.0 / qcomp=0.60 / qpstep=1 / stats-write=0 / stats-read=0 / vbv-maxrate=15000 / vbv-bufsize=20000 / vbv-init=0.9 / crf-max=0.0 / crf-min=0.0 / ipratio=1.10 / pbratio=1.00 / aq-mode=0 / aq-strength=1.50 / no-cutree / zone-count=0 / no-strict-cbr / qg-size=32 / rc-grain / qpmax=69 / qpmin=0 / const-vbv / sar=1 / overscan=0 / videoformat=2 / range=0 / colorprim=1 / transfer=1 / colormatrix=1 / chromaloc=0 / display-window=0 / max-cll=0,0 / min-luma=0 / max-luma=255 / log2-max-poc-lsb=8 / vui-timing-info / vui-hrd-info / slices=1 / opt-qp-pps / no-opt-ref-list-length-pps / no-multi-pass-opt-rps / scenecut-bias=0.05 / no-opt-cu-delta-qp / no-aq-motion / no-hdr / no-hdr-opt / no-dhdr10-opt / no-idr-recovery-sei / analysis-reuse-level=5 / scale-factor=0 / refine-intra=0 / refine-inter=0 / refine-mv=0 / no-limit-sao / ctu-info=0 / no-lowpass-dct / refine-mv-type=0 / copy-pic=1 / max-ausize-factor=1.0 / no-dynamic-refine / no-single-sei
Default : Yes
Forced : No
Color range : Limited
Color primaries : BT.709
Transfer characteristics : BT.709
Matrix coefficients : BT.709

Audio
ID : 2
Format : E-AC-3
Format/Info : Enhanced AC-3
Commercial name : Dolby Digital Plus
Codec ID : A_EAC3
Duration : 1 h 45 min
Bit rate mode : Constant
Bit rate : 640 kb/s
Channel(s) : 6 channels
Channel layout : L R C LFE Ls Rs
Sampling rate : 48.0 kHz
Frame rate : 31.250 FPS (1536 SPF)
Compression mode : Lossy
Stream size : 485 MiB (6%)
Title : English
Language : English
Service kind : Complete Main
Default : Yes
Forced : No

Text #1
ID : 3
Format : UTF-8
Codec ID : S_TEXT/UTF8
Codec ID/Info : UTF-8 Plain Text
Duration : 1 h 31 min
Bit rate : 3 b/s
Frame rate : 0.014 FPS
Count of elements : 79
Stream size : 2.32 KiB (0%)
Title : English (Forced)
Language : English
Default : Yes
Forced : Yes

Text #2
ID : 4
Format : UTF-8
Codec ID : S_TEXT/UTF8
Codec ID/Info : UTF-8 Plain Text
Duration : 1 h 45 min
Bit rate : 77 b/s
Frame rate : 0.189 FPS
Count of elements : 1203
Stream size : 60.0 KiB (0%)
Title : Arabic
Language : Arabic
Default : No
Forced : No

Text #3
ID : 5
Format : UTF-8
Codec ID : S_TEXT/UTF8
Codec ID/Info : UTF-8 Plain Text
Duration : 1 h 45 min
Bit rate : 48 b/s
Frame rate : 0.186 FPS
Count of elements : 1181
Stream size : 37.5 KiB (0%)
Title : Czech
Language : Czech
Default : No
Forced : No

Text #4
ID : 6
Format : UTF-8
Codec ID : S_TEXT/UTF8
Codec ID/Info : UTF-8 Plain Text
Duration : 1 h 45 min
Bit rate : 48 b/s
Frame rate : 0.188 FPS
Count of elements : 1196
Stream size : 37.9 KiB (0%)
Title : Danish
Language : Danish
Default : No
Forced : No

Text #5
ID : 7
Format : UTF-8
Codec ID : S_TEXT/UTF8
Codec ID/Info : UTF-8 Plain Text
Duration : 1 h 45 min
Bit rate : 48 b/s
Frame rate : 0.189 FPS
Count of elements : 1197
Stream size : 37.9 KiB (0%)
Title : German
Language : German
Default : No
Forced : No

Text #6
ID : 8
Format : UTF-8
Codec ID : S_TEXT/UTF8
Codec ID/Info : UTF-8 Plain Text
Duration : 1 h 45 min
Bit rate : 89 b/s
Frame rate : 0.189 FPS
Count of elements : 1201
Stream size : 69.2 KiB (0%)
Title : Modern Greek (1453-)
Language : Greek
Default : No
Forced : No

Text #7
ID : 9
Format : UTF-8
Codec ID : S_TEXT/UTF8
Codec ID/Info : UTF-8 Plain Text
Duration : 1 h 44 min
Bit rate : 63 b/s
Frame rate : 0.251 FPS
Count of elements : 1574
Stream size : 48.4 KiB (0%)
Title : English (SDH)
Language : English
Default : No
Forced : No

Text #8
ID : 10
Format : UTF-8
Codec ID : S_TEXT/UTF8
Codec ID/Info : UTF-8 Plain Text
Duration : 1 h 45 min
Bit rate : 44 b/s
Frame rate : 0.178 FPS
Count of elements : 1130
Stream size : 34.2 KiB (0%)
Title : Spanish
Language : Spanish
Default : No
Forced : No

Text #9
ID : 11
Format : UTF-8
Codec ID : S_TEXT/UTF8
Codec ID/Info : UTF-8 Plain Text
Duration : 1 h 45 min
Bit rate : 42 b/s
Frame rate : 0.178 FPS
Count of elements : 1131
Stream size : 33.1 KiB (0%)
Title : Spanish
Language : Spanish
Default : No
Forced : No

Text #10
ID : 12
Format : UTF-8
Codec ID : S_TEXT/UTF8
Codec ID/Info : UTF-8 Plain Text
Duration : 1 h 45 min
Bit rate : 46 b/s
Frame rate : 0.189 FPS
Count of elements : 1198
Stream size : 36.3 KiB (0%)
Title : Finnish
Language : Finnish
Default : No
Forced : No

Text #11
ID : 13
Format : UTF-8
Codec ID : S_TEXT/UTF8
Codec ID/Info : UTF-8 Plain Text
Duration : 1 h 45 min
Bit rate : 48 b/s
Frame rate : 0.188 FPS
Count of elements : 1194
Stream size : 37.6 KiB (0%)
Title : Filipino
Language : fil
Default : No
Forced : No

Text #12
ID : 14
Format : UTF-8
Codec ID : S_TEXT/UTF8
Codec ID/Info : UTF-8 Plain Text
Duration : 1 h 45 min
Bit rate : 47 b/s
Frame rate : 0.189 FPS
Count of elements : 1198
Stream size : 36.9 KiB (0%)
Title : French
Language : French
Default : No
Forced : No

Text #13
ID : 15
Format : UTF-8
Codec ID : S_TEXT/UTF8
Codec ID/Info : UTF-8 Plain Text
Duration : 1 h 45 min
Bit rate : 75 b/s
Frame rate : 0.190 FPS
Count of elements : 1204
Stream size : 58.7 KiB (0%)
Title : Hebrew
Language : Hebrew
Default : No
Forced : No

Text #14
ID : 16
Format : UTF-8
Codec ID : S_TEXT/UTF8
Codec ID/Info : UTF-8 Plain Text
Duration : 1 h 45 min
Bit rate : 118 b/s
Frame rate : 0.190 FPS
Count of elements : 1204
Stream size : 91.6 KiB (0%)
Title : Hindi
Language : Hindi
Default : No
Forced : No

Text #15
ID : 17
Format : UTF-8
Codec ID : S_TEXT/UTF8
Codec ID/Info : UTF-8 Plain Text
Duration : 1 h 45 min
Bit rate : 50 b/s
Frame rate : 0.189 FPS
Count of elements : 1202
Stream size : 39.2 KiB (0%)
Title : Hungarian
Language : Hungarian
Default : No
Forced : No

Text #16
ID : 18
Format : UTF-8
Codec ID : S_TEXT/UTF8
Codec ID/Info : UTF-8 Plain Text
Duration : 1 h 45 min
Bit rate : 46 b/s
Frame rate : 0.189 FPS
Count of elements : 1202
Stream size : 35.8 KiB (0%)
Title : Indonesian
Language : Indonesian
Default : No
Forced : No

Text #17
ID : 19
Format : UTF-8
Codec ID : S_TEXT/UTF8
Codec ID/Info : UTF-8 Plain Text
Duration : 1 h 45 min
Bit rate : 49 b/s
Frame rate : 0.189 FPS
Count of elements : 1201
Stream size : 38.2 KiB (0%)
Title : Italian
Language : Italian
Default : No
Forced : No

Text #18
ID : 20
Format : UTF-8
Codec ID : S_TEXT/UTF8
Codec ID/Info : UTF-8 Plain Text
Duration : 1 h 45 min
Bit rate : 46 b/s
Frame rate : 0.182 FPS
Count of elements : 1151
Stream size : 35.7 KiB (0%)
Title : Japanese
Language : Japanese
Default : No
Forced : No

Text #19
ID : 21
Format : UTF-8
Codec ID : S_TEXT/UTF8
Codec ID/Info : UTF-8 Plain Text
Duration : 1 h 45 min
Bit rate : 52 b/s
Frame rate : 0.190 FPS
Count of elements : 1204
Stream size : 41.0 KiB (0%)
Title : Korean
Language : Korean
Default : No
Forced : No

Text #20
ID : 22
Format : UTF-8
Codec ID : S_TEXT/UTF8
Codec ID/Info : UTF-8 Plain Text
Duration : 1 h 45 min
Bit rate : 47 b/s
Frame rate : 0.189 FPS
Count of elements : 1199
Stream size : 36.7 KiB (0%)
Title : Malay (macrolanguage)
Language : Malay
Default : No
Forced : No

Text #21
ID : 23
Format : UTF-8
Codec ID : S_TEXT/UTF8
Codec ID/Info : UTF-8 Plain Text
Duration : 1 h 45 min
Bit rate : 46 b/s
Frame rate : 0.189 FPS
Count of elements : 1197
Stream size : 36.1 KiB (0%)
Title : Norwegian Bokmål
Language : Norwegian Bokmal
Default : No
Forced : No

Text #22
ID : 24
Format : UTF-8
Codec ID : S_TEXT/UTF8
Codec ID/Info : UTF-8 Plain Text
Duration : 1 h 45 min
Bit rate : 47 b/s
Frame rate : 0.189 FPS
Count of elements : 1198
Stream size : 36.5 KiB (0%)
Title : Dutch
Language : Dutch
Default : No
Forced : No

Text #23
ID : 25
Format : UTF-8
Codec ID : S_TEXT/UTF8
Codec ID/Info : UTF-8 Plain Text
Duration : 1 h 45 min
Bit rate : 39 b/s
Frame rate : 0.188 FPS
Count of elements : 1196
Stream size : 30.4 KiB (0%)
Title : Polish
Language : Polish
Default : No
Forced : No

Text #24
ID : 26
Format : UTF-8
Codec ID : S_TEXT/UTF8
Codec ID/Info : UTF-8 Plain Text
Duration : 1 h 45 min
Bit rate : 48 b/s
Frame rate : 0.189 FPS
Count of elements : 1201
Stream size : 37.7 KiB (0%)
Title : Portuguese
Language : Portuguese
Default : No
Forced : No

Text #25
ID : 27
Format : UTF-8
Codec ID : S_TEXT/UTF8
Codec ID/Info : UTF-8 Plain Text
Duration : 1 h 45 min
Bit rate : 46 b/s
Frame rate : 0.189 FPS
Count of elements : 1198
Stream size : 35.8 KiB (0%)
Title : Portuguese
Language : Portuguese
Default : No
Forced : No

Text #26
ID : 28
Format : UTF-8
Codec ID : S_TEXT/UTF8
Codec ID/Info : UTF-8 Plain Text
Duration : 1 h 45 min
Bit rate : 48 b/s
Frame rate : 0.189 FPS
Count of elements : 1201
Stream size : 37.8 KiB (0%)
Title : Romanian
Language : Romanian
Default : No
Forced : No

Text #27
ID : 29
Format : UTF-8
Codec ID : S_TEXT/UTF8
Codec ID/Info : UTF-8 Plain Text
Duration : 1 h 45 min
Bit rate : 76 b/s
Frame rate : 0.190 FPS
Count of elements : 1204
Stream size : 59.6 KiB (0%)
Title : Russian
Language : Russian
Default : No
Forced : No

Text #28
ID : 30
Format : UTF-8
Codec ID : S_TEXT/UTF8
Codec ID/Info : UTF-8 Plain Text
Duration : 1 h 45 min
Bit rate : 49 b/s
Frame rate : 0.188 FPS
Count of elements : 1194
Stream size : 38.5 KiB (0%)
Title : Swedish
Language : Swedish
Default : No
Forced : No

Text #29
ID : 31
Format : UTF-8
Codec ID : S_TEXT/UTF8
Codec ID/Info : UTF-8 Plain Text
Duration : 1 h 45 min
Bit rate : 129 b/s
Frame rate : 0.190 FPS
Count of elements : 1204
Stream size : 101 KiB (0%)
Title : Tamil
Language : Tamil
Default : No
Forced : No

Text #30
ID : 32
Format : UTF-8
Codec ID : S_TEXT/UTF8
Codec ID/Info : UTF-8 Plain Text
Duration : 1 h 45 min
Bit rate : 123 b/s
Frame rate : 0.190 FPS
Count of elements : 1204
Stream size : 95.9 KiB (0%)
Title : Telugu
Language : Telugu
Default : No
Forced : No

Text #31
ID : 33
Format : UTF-8
Codec ID : S_TEXT/UTF8
Codec ID/Info : UTF-8 Plain Text
Duration : 1 h 45 min
Bit rate : 117 b/s
Frame rate : 0.190 FPS
Count of elements : 1204
Stream size : 91.3 KiB (0%)
Title : Thai
Language : Thai
Default : No
Forced : No

Text #32
ID : 34
Format : UTF-8
Codec ID : S_TEXT/UTF8
Codec ID/Info : UTF-8 Plain Text
Duration : 1 h 45 min
Bit rate : 48 b/s
Frame rate : 0.189 FPS
Count of elements : 1203
Stream size : 37.5 KiB (0%)
Title : Turkish
Language : Turkish
Default : No
Forced : No

Text #33
ID : 35
Format : UTF-8
Codec ID : S_TEXT/UTF8
Codec ID/Info : UTF-8 Plain Text
Duration : 1 h 45 min
Bit rate : 72 b/s
Frame rate : 0.190 FPS
Count of elements : 1204
Stream size : 56.3 KiB (0%)
Title : Ukrainian
Language : Ukrainian
Default : No
Forced : No

Text #34
ID : 36
Format : UTF-8
Codec ID : S_TEXT/UTF8
Codec ID/Info : UTF-8 Plain Text
Duration : 1 h 45 min
Bit rate : 60 b/s
Frame rate : 0.189 FPS
Count of elements : 1202
Stream size : 46.8 KiB (0%)
Title : Vietnamese
Language : Vietnamese
Default : No
Forced : No

Text #35
ID : 37
Format : UTF-8
Codec ID : S_TEXT/UTF8
Codec ID/Info : UTF-8 Plain Text
Duration : 1 h 45 min
Bit rate : 46 b/s
Frame rate : 0.190 FPS
Count of elements : 1204
Stream size : 36.1 KiB (0%)
Title : 简体
Language : Chinese

Default : No
Forced : No

Text #36
ID : 38
Format : UTF-8
Codec ID : S_TEXT/UTF8
Codec ID/Info : UTF-8 Plain Text
Duration : 1 h 45 min
Bit rate : 45 b/s
Frame rate : 0.190 FPS
Count of elements : 1204
Stream size : 35.0 KiB (0%)
Title : 繁体
Language : Chinese

Default : No
Forced : No

推荐使用qBittorrent、uTorrent、BitComet等下载软件,有条件的推荐115或会员软件下载!

下载地址

游客,如果您要查看本帖隐藏内容请回复

游客,如果您要查看本帖隐藏内容请回复




上一篇:耍宝警探 [简繁中字] / Loin du périph (2022) 4K高清版本下载
下一篇:爱与冰激凌 [简繁中字] / Love.And.Gelato (2022) 4K高清版本下载
回复

使用道具 举报

您需要登录后才可以回帖 登录 | 立即注册

本版积分规则

精彩图文
Archiver|手机版|TAG|Sitemap|新帖|专题|联系我们:邮箱: 4kjia.com@gmail.com   

4k家园   ©2019