[4K电影] 死小子们 [简繁中字] / Dead Kids (2019) 4K高清版本下载

[复制链接]

主题

帖子

0

积分

超级版主

Rank: 8Rank: 8

积分
0
 楼主| 发表于 2023-1-5 12:16:58 | 显示全部楼层 |阅读模式
本帖最后由 最爱4K哟 于 2023-1-5 13:17 编辑

QQ图片20230105131646_副本.png

◎译  名 死小子们/死囝仔(台)/找死
◎片  名 Dead Kids
◎年  代 2019
◎产  地 菲律宾
◎类  别 惊悚
◎语  言 菲律宾语
◎上映日期 2019-12-01(菲律宾)
◎IMDb评分 5.4/10 from 598 users 更新 : 2023-01-02
◎IMDb链接 https://www.imdb.com/title/tt11156614/
◎豆瓣评分 5.2/10 from 83 users 更新 : 2023-01-05
◎豆瓣链接 https://douban.com/subject/34892796/
◎片  长 98分钟
◎导  演 米哈伊尔·瑞德 Mikhail Red
◎主  演 加比·帕迪拉 Gabby Padilla


◎简  介


  一群与社会格格不入的青少年密谋绑架校内的傲慢富家子,一名不擅社交的青少年加入其中,但他们的绑架计划却酿出人命。
Video
ID : 1
Format : HEVC
Format/Info : High Efficiency Video Coding
Format profile : Main 10@L5@Main
Codec ID : V_MPEGH/ISO/HEVC
Duration : 1 h 34 min
Bit rate : 3 749 kb/s
Width : 3 840 pixels
Height : 2 160 pixels
Display aspect ratio : 16:9
Frame rate mode : Constant
Frame rate : 23.976 (24000/1001) FPS
Color space : YUV
Chroma subsampling : 4:2:0
Bit depth : 10 bits
Bits/(Pixel*Frame) : 0.019
Stream size : 2.46 GiB (85%)
Default : Yes
Forced : No
Color range : Limited
Color primaries : BT.709
Transfer characteristics : BT.709
Matrix coefficients : BT.709

Audio
ID : 2
Format : E-AC-3
Format/Info : Enhanced AC-3
Commercial name : Dolby Digital Plus
Codec ID : A_EAC3
Duration : 1 h 34 min
Bit rate mode : Constant
Bit rate : 640 kb/s
Channel(s) : 6 channels
Channel layout : L R C LFE Ls Rs
Sampling rate : 48.0 kHz
Frame rate : 31.250 FPS (1536 SPF)
Compression mode : Lossy
Stream size : 430 MiB (15%)
Language : fil
Service kind : Complete Main
Default : Yes
Forced : No

Text #1
ID : 3
Format : UTF-8
Codec ID : S_TEXT/UTF8
Codec ID/Info : UTF-8 Plain Text
Duration : 1 h 33 min
Bit rate : 18 b/s
Frame rate : 0.078 FPS
Count of elements : 439
Stream size : 12.7 KiB (0%)
Title : Forced
Language : fil
Default : Yes
Forced : Yes

Text #2
ID : 4
Format : UTF-8
Codec ID : S_TEXT/UTF8
Codec ID/Info : UTF-8 Plain Text
Duration : 1 h 33 min
Bit rate : 94 b/s
Frame rate : 0.231 FPS
Count of elements : 1295
Stream size : 64.9 KiB (0%)
Language : Arabic
Default : No
Forced : No

Text #3
ID : 5
Format : UTF-8
Codec ID : S_TEXT/UTF8
Codec ID/Info : UTF-8 Plain Text
Duration : 1 h 33 min
Bit rate : 50 b/s
Frame rate : 0.230 FPS
Count of elements : 1291
Stream size : 34.7 KiB (0%)
Language : Czech
Default : No
Forced : No

Text #4
ID : 6
Format : UTF-8
Codec ID : S_TEXT/UTF8
Codec ID/Info : UTF-8 Plain Text
Duration : 1 h 33 min
Bit rate : 48 b/s
Frame rate : 0.193 FPS
Count of elements : 1080
Stream size : 33.4 KiB (0%)
Language : Danish
Default : No
Forced : No

Text #5
ID : 7
Format : UTF-8
Codec ID : S_TEXT/UTF8
Codec ID/Info : UTF-8 Plain Text
Duration : 1 h 32 min
Bit rate : 56 b/s
Frame rate : 0.224 FPS
Count of elements : 1244
Stream size : 38.7 KiB (0%)
Language : German
Default : No
Forced : No

Text #6
ID : 8
Format : UTF-8
Codec ID : S_TEXT/UTF8
Codec ID/Info : UTF-8 Plain Text
Duration : 1 h 29 min
Bit rate : 87 b/s
Frame rate : 0.238 FPS
Count of elements : 1285
Stream size : 57.6 KiB (0%)
Language : Greek
Default : No
Forced : No

Text #7
ID : 9
Format : UTF-8
Codec ID : S_TEXT/UTF8
Codec ID/Info : UTF-8 Plain Text
Duration : 1 h 31 min
Bit rate : 56 b/s
Frame rate : 0.234 FPS
Count of elements : 1283
Stream size : 38.0 KiB (0%)
Language : English
Default : No
Forced : No

Text #8
ID : 10
Format : UTF-8
Codec ID : S_TEXT/UTF8
Codec ID/Info : UTF-8 Plain Text
Duration : 1 h 33 min
Bit rate : 52 b/s
Frame rate : 0.229 FPS
Count of elements : 1282
Stream size : 36.1 KiB (0%)
Title : Latin American
Language : Spanish
Default : No
Forced : No

Text #9
ID : 11
Format : UTF-8
Codec ID : S_TEXT/UTF8
Codec ID/Info : UTF-8 Plain Text
Duration : 1 h 33 min
Bit rate : 55 b/s
Frame rate : 0.226 FPS
Count of elements : 1265
Stream size : 38.2 KiB (0%)
Title : Latin American
Language : Spanish
Default : No
Forced : No

Text #10
ID : 12
Format : UTF-8
Codec ID : S_TEXT/UTF8
Codec ID/Info : UTF-8 Plain Text
Duration : 1 h 33 min
Bit rate : 61 b/s
Frame rate : 0.235 FPS
Count of elements : 1318
Stream size : 41.8 KiB (0%)
Title : Latin American (SDH)
Language : Spanish
Default : No
Forced : No

Text #11
ID : 13
Format : UTF-8
Codec ID : S_TEXT/UTF8
Codec ID/Info : UTF-8 Plain Text
Duration : 1 h 33 min
Bit rate : 55 b/s
Frame rate : 0.230 FPS
Count of elements : 1287
Stream size : 37.6 KiB (0%)
Title : European
Language : Spanish
Default : No
Forced : No

Text #12
ID : 14
Format : UTF-8
Codec ID : S_TEXT/UTF8
Codec ID/Info : UTF-8 Plain Text
Duration : 1 h 33 min
Bit rate : 48 b/s
Frame rate : 0.193 FPS
Count of elements : 1080
Stream size : 33.3 KiB (0%)
Language : Finnish
Default : No
Forced : No

Text #13
ID : 15
Format : UTF-8
Codec ID : S_TEXT/UTF8
Codec ID/Info : UTF-8 Plain Text
Duration : 1 h 33 min
Bit rate : 74 b/s
Frame rate : 0.331 FPS
Count of elements : 1858
Stream size : 51.0 KiB (0%)
Title : SDH
Language : fil
Default : No
Forced : No

Text #14
ID : 16
Format : UTF-8
Codec ID : S_TEXT/UTF8
Codec ID/Info : UTF-8 Plain Text
Duration : 1 h 33 min
Bit rate : 54 b/s
Frame rate : 0.229 FPS
Count of elements : 1282
Stream size : 37.5 KiB (0%)
Language : French
Default : No
Forced : No

Text #15
ID : 17
Format : UTF-8
Codec ID : S_TEXT/UTF8
Codec ID/Info : UTF-8 Plain Text
Duration : 1 h 30 min
Bit rate : 79 b/s
Frame rate : 0.238 FPS
Count of elements : 1293
Stream size : 52.9 KiB (0%)
Language : Hebrew
Default : No
Forced : No

Text #16
ID : 18
Format : UTF-8
Codec ID : S_TEXT/UTF8
Codec ID/Info : UTF-8 Plain Text
Duration : 1 h 33 min
Bit rate : 150 b/s
Frame rate : 0.231 FPS
Count of elements : 1295
Stream size : 103 KiB (0%)
Language : Hindi
Default : No
Forced : No

Text #17
ID : 19
Format : UTF-8
Codec ID : S_TEXT/UTF8
Codec ID/Info : UTF-8 Plain Text
Duration : 1 h 29 min
Bit rate : 58 b/s
Frame rate : 0.240 FPS
Count of elements : 1294
Stream size : 38.6 KiB (0%)
Language : Hungarian
Default : No
Forced : No

Text #18
ID : 20
Format : UTF-8
Codec ID : S_TEXT/UTF8
Codec ID/Info : UTF-8 Plain Text
Duration : 1 h 33 min
Bit rate : 54 b/s
Frame rate : 0.230 FPS
Count of elements : 1291
Stream size : 37.0 KiB (0%)
Language : Indonesian
Default : No
Forced : No

Text #19
ID : 21
Format : UTF-8
Codec ID : S_TEXT/UTF8
Codec ID/Info : UTF-8 Plain Text
Duration : 1 h 33 min
Bit rate : 54 b/s
Frame rate : 0.230 FPS
Count of elements : 1291
Stream size : 37.6 KiB (0%)
Language : Italian
Default : No
Forced : No

Text #20
ID : 22
Format : UTF-8
Codec ID : S_TEXT/UTF8
Codec ID/Info : UTF-8 Plain Text
Duration : 1 h 33 min
Bit rate : 48 b/s
Frame rate : 0.223 FPS
Count of elements : 1251
Stream size : 33.5 KiB (0%)
Language : Japanese
Default : No
Forced : No

Text #21
ID : 23
Format : UTF-8
Codec ID : S_TEXT/UTF8
Codec ID/Info : UTF-8 Plain Text
Duration : 1 h 33 min
Bit rate : 62 b/s
Frame rate : 0.231 FPS
Count of elements : 1295
Stream size : 42.8 KiB (0%)
Language : Korean
Default : No
Forced : No

Text #22
ID : 24
Format : UTF-8
Codec ID : S_TEXT/UTF8
Codec ID/Info : UTF-8 Plain Text
Duration : 1 h 33 min
Bit rate : 52 b/s
Frame rate : 0.231 FPS
Count of elements : 1295
Stream size : 36.2 KiB (0%)
Language : Malay
Default : No
Forced : No

Text #23
ID : 25
Format : UTF-8
Codec ID : S_TEXT/UTF8
Codec ID/Info : UTF-8 Plain Text
Duration : 1 h 33 min
Bit rate : 53 b/s
Frame rate : 0.193 FPS
Count of elements : 1080
Stream size : 36.5 KiB (0%)
Language : Norwegian Bokmal
Default : No
Forced : No

Text #24
ID : 26
Format : UTF-8
Codec ID : S_TEXT/UTF8
Codec ID/Info : UTF-8 Plain Text
Duration : 1 h 32 min
Bit rate : 45 b/s
Frame rate : 0.166 FPS
Count of elements : 923
Stream size : 30.7 KiB (0%)
Language : Dutch
Default : No
Forced : No

Text #25
ID : 27
Format : UTF-8
Codec ID : S_TEXT/UTF8
Codec ID/Info : UTF-8 Plain Text
Duration : 1 h 33 min
Bit rate : 47 b/s
Frame rate : 0.230 FPS
Count of elements : 1291
Stream size : 32.4 KiB (0%)
Language : Polish
Default : No
Forced : No

Text #26
ID : 28
Format : UTF-8
Codec ID : S_TEXT/UTF8
Codec ID/Info : UTF-8 Plain Text
Duration : 1 h 33 min
Bit rate : 49 b/s
Frame rate : 0.231 FPS
Count of elements : 1294
Stream size : 34.1 KiB (0%)
Title : Brazilian
Language : Portuguese
Default : No
Forced : No

Text #27
ID : 29
Format : UTF-8
Codec ID : S_TEXT/UTF8
Codec ID/Info : UTF-8 Plain Text
Duration : 1 h 29 min
Bit rate : 61 b/s
Frame rate : 0.244 FPS
Count of elements : 1314
Stream size : 40.5 KiB (0%)
Title : Brazilian
Language : Portuguese
Default : No
Forced : No

Text #28
ID : 30
Format : UTF-8
Codec ID : S_TEXT/UTF8
Codec ID/Info : UTF-8 Plain Text
Duration : 1 h 29 min
Bit rate : 86 b/s
Frame rate : 0.309 FPS
Count of elements : 1665
Stream size : 56.8 KiB (0%)
Title : Brazilian (SDH)
Language : Portuguese
Default : No
Forced : No

Text #29
ID : 31
Format : UTF-8
Codec ID : S_TEXT/UTF8
Codec ID/Info : UTF-8 Plain Text
Duration : 1 h 33 min
Bit rate : 51 b/s
Frame rate : 0.230 FPS
Count of elements : 1287
Stream size : 35.0 KiB (0%)
Title : European
Language : Portuguese
Default : No
Forced : No

Text #30
ID : 32
Format : UTF-8
Codec ID : S_TEXT/UTF8
Codec ID/Info : UTF-8 Plain Text
Duration : 1 h 33 min
Bit rate : 55 b/s
Frame rate : 0.230 FPS
Count of elements : 1290
Stream size : 37.9 KiB (0%)
Language : Romanian
Default : No
Forced : No

Text #31
ID : 33
Format : UTF-8
Codec ID : S_TEXT/UTF8
Codec ID/Info : UTF-8 Plain Text
Duration : 1 h 33 min
Bit rate : 78 b/s
Frame rate : 0.231 FPS
Count of elements : 1295
Stream size : 54.0 KiB (0%)
Language : Russian
Default : No
Forced : No

Text #32
ID : 34
Format : UTF-8
Codec ID : S_TEXT/UTF8
Codec ID/Info : UTF-8 Plain Text
Duration : 1 h 33 min
Bit rate : 49 b/s
Frame rate : 0.193 FPS
Count of elements : 1080
Stream size : 33.7 KiB (0%)
Language : Swedish
Default : No
Forced : No

Text #33
ID : 35
Format : UTF-8
Codec ID : S_TEXT/UTF8
Codec ID/Info : UTF-8 Plain Text
Duration : 1 h 33 min
Bit rate : 153 b/s
Frame rate : 0.231 FPS
Count of elements : 1295
Stream size : 105 KiB (0%)
Language : Thai
Default : No
Forced : No

Text #34
ID : 36
Format : UTF-8
Codec ID : S_TEXT/UTF8
Codec ID/Info : UTF-8 Plain Text
Duration : 1 h 33 min
Bit rate : 207 b/s
Frame rate : 0.291 FPS
Count of elements : 1630
Stream size : 142 KiB (0%)
Title : SDH
Language : Thai
Default : No
Forced : No

Text #35
ID : 37
Format : UTF-8
Codec ID : S_TEXT/UTF8
Codec ID/Info : UTF-8 Plain Text
Duration : 1 h 33 min
Bit rate : 51 b/s
Frame rate : 0.231 FPS
Count of elements : 1295
Stream size : 35.5 KiB (0%)
Language : Turkish
Default : No
Forced : No

Text #36
ID : 38
Format : UTF-8
Codec ID : S_TEXT/UTF8
Codec ID/Info : UTF-8 Plain Text
Duration : 1 h 33 min
Bit rate : 76 b/s
Frame rate : 0.230 FPS
Count of elements : 1292
Stream size : 52.7 KiB (0%)
Language : Vietnamese
Default : No
Forced : No

Text #37
ID : 39
Format : UTF-8
Codec ID : S_TEXT/UTF8
Codec ID/Info : UTF-8 Plain Text
Duration : 1 h 33 min
Bit rate : 57 b/s
Frame rate : 0.231 FPS
Count of elements : 1295
Stream size : 39.3 KiB (0%)
Title : 简体
Language : Chinese

Default : No
Forced : No

Text #38
ID : 40
Format : UTF-8
Codec ID : S_TEXT/UTF8
Codec ID/Info : UTF-8 Plain Text
Duration : 1 h 33 min
Bit rate : 59 b/s
Frame rate : 0.231 FPS
Count of elements : 1295
Stream size : 40.8 KiB (0%)
Title : 繁体
Language : Chinese

Default : No
Forced : No

Menu
00:00:00.000 : enart 01
01:29:55.450 : en:Credits

推荐使用qBittorrent、uTorrent、BitComet等下载软件,有条件的推荐115或会员软件下载!

下载地址


游客,如果您要查看本帖隐藏内容请回复






上一篇:爱与冰激凌 [简繁中字] / Love.And.Gelato (2022) 4K高清版本下载
下一篇:路的尽头 [简繁中字] / End.of.the.Road (2022) 4K高清版本下载
回复

使用道具 举报

主题

帖子

0

积分

新手上路

Rank: 1

积分
0
发表于 7 天前 | 显示全部楼层
回复

使用道具 举报

您需要登录后才可以回帖 登录 | 立即注册

本版积分规则

精彩图文
Archiver|手机版|TAG|Sitemap|新帖|专题|联系我们:邮箱: 4kjia.com@gmail.com   

4k家园   ©2019