[4K电影] 喵星人的奇思妙想 [简繁中字] (2022) 4K高清版本下载

[复制链接]

主题

帖子

0

积分

超级版主

Rank: 8Rank: 8

积分
0
 楼主| 发表于 2023-1-5 12:39:33 | 显示全部楼层 |阅读模式
本帖最后由 最爱4K哟 于 2023-1-5 13:18 编辑

QQ图片20230105131903_副本.png

◎译  名 喵星人的奇思妙想
◎片  名 Inside the Mind of a Cat
◎年  代 2022
◎产  地 美国
◎类  别 纪录片
◎语  言 英语/日语
◎上映日期 2022-08-18(美国网络)
◎IMDb评分 6.9/10 from 4899 users 更新 : 2023-01-02
◎IMDb链接 https://www.imdb.com/title/tt21340412/
◎豆瓣评分 7.5/10 from 1566 users 更新 : 2023-01-05
◎豆瓣链接 https://movie.douban.com/subject/36033619/
◎片  长 67分钟
◎导  演 安迪·米切尔 Andy Mitchell
◎主  演 尼尔·威尔逊 Neil Wilson
                   Bruce Kornriech Bruce Kornriech
                   克里斯汀·维塔尔 Kristyn Vitale
                   Saho Takagi Saho Takagi
                   玛丽娜·萨维茨卡 Maryna Savitska
                   斯维特拉娜·萨维茨卡 Svitlana Savytska
                   Wailani Sung Wailani Sung
                   Yuki Hattori Yuki Hattori
                   伊娃·玛丽亚·吉格尔 Eva Maria Giegl
                   德鲁·麦肯西 Drew McKensie
                   海伦·麦肯西 Helen McKensie



◎简  介


  猫专家深入猫的大脑,在这部迷人而可爱的纪录片中揭示了这只猛扑宠物的真实能力。
Video
ID : 1
Format : HEVC
Format/Info : High Efficiency Video Coding
Format profile : Main 10@L5@Main
HDR format : SMPTE ST 2086, HDR10 compatible
Codec ID : V_MPEGH/ISO/HEVC
Duration : 1 h 6 min
Bit rate : 17.0 Mb/s
Width : 3 840 pixels
Height : 2 160 pixels
Display aspect ratio : 16:9
Frame rate mode : Constant
Frame rate : 23.976 (24000/1001) FPS
Color space : YUV
Chroma subsampling : 4:2:0 (Type 2)
Bit depth : 10 bits
Bits/(Pixel*Frame) : 0.085
Stream size : 7.94 GiB (96%)
Language : English
Default : Yes
Forced : No
Color range : Limited
Color primaries : BT.2020
Transfer characteristics : PQ
Matrix coefficients : BT.2020 non-constant
Mastering display color primaries : Display P3
Mastering display luminance : min: 0.0001 cd/m2, max: 1000 cd/m2
Maximum Content Light Level : 756 cd/m2
Maximum Frame-Average Light Level : 112 cd/m2

Audio
ID : 2
Format : E-AC-3
Format/Info : Enhanced AC-3
Commercial name : Dolby Digital Plus
Codec ID : A_EAC3
Duration : 1 h 7 min
Bit rate mode : Constant
Bit rate : 640 kb/s
Channel(s) : 6 channels
Channel layout : L R C LFE Ls Rs
Sampling rate : 48.0 kHz
Frame rate : 31.250 FPS (1536 SPF)
Compression mode : Lossy
Stream size : 311 MiB (4%)
Language : English
Service kind : Complete Main
Default : Yes
Forced : No

Text #1
ID : 3
Format : UTF-8
Codec ID : S_TEXT/UTF8
Codec ID/Info : UTF-8 Plain Text
Duration : 53 min 12 s
Bit rate : 6 b/s
Frame rate : 0.019 FPS
Count of elements : 61
Stream size : 2.65 KiB (0%)
Title : Forced
Language : English
Default : Yes
Forced : Yes

Text #2
ID : 4
Format : UTF-8
Codec ID : S_TEXT/UTF8
Codec ID/Info : UTF-8 Plain Text
Duration : 1 h 6 min
Bit rate : 93 b/s
Frame rate : 0.269 FPS
Count of elements : 1074
Stream size : 45.4 KiB (0%)
Title : SDH
Language : English
Default : No
Forced : No

Text #3
ID : 5
Format : UTF-8
Codec ID : S_TEXT/UTF8
Codec ID/Info : UTF-8 Plain Text
Duration : 1 h 6 min
Bit rate : 135 b/s
Frame rate : 0.233 FPS
Count of elements : 930
Stream size : 66.3 KiB (0%)
Language : Arabic
Default : No
Forced : No

Text #4
ID : 6
Format : UTF-8
Codec ID : S_TEXT/UTF8
Codec ID/Info : UTF-8 Plain Text
Duration : 1 h 6 min
Bit rate : 79 b/s
Frame rate : 0.221 FPS
Count of elements : 883
Stream size : 38.8 KiB (0%)
Language : Czech
Default : No
Forced : No

Text #5
ID : 7
Format : UTF-8
Codec ID : S_TEXT/UTF8
Codec ID/Info : UTF-8 Plain Text
Duration : 1 h 6 min
Bit rate : 76 b/s
Frame rate : 0.226 FPS
Count of elements : 901
Stream size : 37.1 KiB (0%)
Language : Danish
Default : No
Forced : No

Text #6
ID : 8
Format : UTF-8
Codec ID : S_TEXT/UTF8
Codec ID/Info : UTF-8 Plain Text
Duration : 1 h 6 min
Bit rate : 84 b/s
Frame rate : 0.222 FPS
Count of elements : 887
Stream size : 41.0 KiB (0%)
Language : German
Default : No
Forced : No

Text #7
ID : 9
Format : UTF-8
Codec ID : S_TEXT/UTF8
Codec ID/Info : UTF-8 Plain Text
Duration : 1 h 6 min
Bit rate : 145 b/s
Frame rate : 0.231 FPS
Count of elements : 921
Stream size : 70.9 KiB (0%)
Language : Greek
Default : No
Forced : No

Text #8
ID : 10
Format : UTF-8
Codec ID : S_TEXT/UTF8
Codec ID/Info : UTF-8 Plain Text
Duration : 1 h 6 min
Bit rate : 81 b/s
Frame rate : 0.228 FPS
Count of elements : 912
Stream size : 40.0 KiB (0%)
Language : Spanish
Default : No
Forced : No

Text #9
ID : 11
Format : UTF-8
Codec ID : S_TEXT/UTF8
Codec ID/Info : UTF-8 Plain Text
Duration : 1 h 6 min
Bit rate : 77 b/s
Frame rate : 0.226 FPS
Count of elements : 902
Stream size : 37.6 KiB (0%)
Title : Europe
Language : Spanish (150)
Default : No
Forced : No

Text #10
ID : 12
Format : UTF-8
Codec ID : S_TEXT/UTF8
Codec ID/Info : UTF-8 Plain Text
Duration : 1 h 6 min
Bit rate : 79 b/s
Frame rate : 0.199 FPS
Count of elements : 796
Stream size : 38.5 KiB (0%)
Language : Finnish
Default : No
Forced : No

Text #11
ID : 13
Format : UTF-8
Codec ID : S_TEXT/UTF8
Codec ID/Info : UTF-8 Plain Text
Duration : 1 h 6 min
Bit rate : 79 b/s
Frame rate : 0.220 FPS
Count of elements : 880
Stream size : 38.7 KiB (0%)
Language : French
Default : No
Forced : No

Text #12
ID : 14
Format : UTF-8
Codec ID : S_TEXT/UTF8
Codec ID/Info : UTF-8 Plain Text
Duration : 1 h 6 min
Bit rate : 134 b/s
Frame rate : 0.222 FPS
Count of elements : 887
Stream size : 65.8 KiB (0%)
Language : Hebrew
Default : No
Forced : No

Text #13
ID : 15
Format : UTF-8
Codec ID : S_TEXT/UTF8
Codec ID/Info : UTF-8 Plain Text
Duration : 1 h 6 min
Bit rate : 71 b/s
Frame rate : 0.214 FPS
Count of elements : 854
Stream size : 35.1 KiB (0%)
Language : Croatian
Default : No
Forced : No

Text #14
ID : 16
Format : UTF-8
Codec ID : S_TEXT/UTF8
Codec ID/Info : UTF-8 Plain Text
Duration : 1 h 6 min
Bit rate : 87 b/s
Frame rate : 0.226 FPS
Count of elements : 901
Stream size : 42.6 KiB (0%)
Language : Hungarian
Default : No
Forced : No

Text #15
ID : 17
Format : UTF-8
Codec ID : S_TEXT/UTF8
Codec ID/Info : UTF-8 Plain Text
Duration : 1 h 6 min
Bit rate : 79 b/s
Frame rate : 0.232 FPS
Count of elements : 927
Stream size : 38.7 KiB (0%)
Language : Indonesian
Default : No
Forced : No

Text #16
ID : 18
Format : UTF-8
Codec ID : S_TEXT/UTF8
Codec ID/Info : UTF-8 Plain Text
Duration : 1 h 6 min
Bit rate : 81 b/s
Frame rate : 0.221 FPS
Count of elements : 883
Stream size : 39.8 KiB (0%)
Language : Italian
Default : No
Forced : No

Text #17
ID : 19
Format : UTF-8
Codec ID : S_TEXT/UTF8
Codec ID/Info : UTF-8 Plain Text
Duration : 1 h 6 min
Bit rate : 90 b/s
Frame rate : 0.236 FPS
Count of elements : 943
Stream size : 44.0 KiB (0%)
Language : Japanese
Default : No
Forced : No

Text #18
ID : 20
Format : UTF-8
Codec ID : S_TEXT/UTF8
Codec ID/Info : UTF-8 Plain Text
Duration : 1 h 6 min
Bit rate : 110 b/s
Frame rate : 0.234 FPS
Count of elements : 936
Stream size : 54.0 KiB (0%)
Language : Korean
Default : No
Forced : No

Text #19
ID : 21
Format : UTF-8
Codec ID : S_TEXT/UTF8
Codec ID/Info : UTF-8 Plain Text
Duration : 1 h 6 min
Bit rate : 76 b/s
Frame rate : 0.228 FPS
Count of elements : 911
Stream size : 37.1 KiB (0%)
Language : Malay
Default : No
Forced : No

Text #20
ID : 22
Format : UTF-8
Codec ID : S_TEXT/UTF8
Codec ID/Info : UTF-8 Plain Text
Duration : 1 h 6 min
Bit rate : 74 b/s
Frame rate : 0.205 FPS
Count of elements : 818
Stream size : 36.5 KiB (0%)
Language : Norwegian Bokmal
Default : No
Forced : No

Text #21
ID : 23
Format : UTF-8
Codec ID : S_TEXT/UTF8
Codec ID/Info : UTF-8 Plain Text
Duration : 1 h 6 min
Bit rate : 80 b/s
Frame rate : 0.209 FPS
Count of elements : 834
Stream size : 39.2 KiB (0%)
Language : Dutch
Default : No
Forced : No

Text #22
ID : 24
Format : UTF-8
Codec ID : S_TEXT/UTF8
Codec ID/Info : UTF-8 Plain Text
Duration : 1 h 6 min
Bit rate : 75 b/s
Frame rate : 0.223 FPS
Count of elements : 891
Stream size : 36.7 KiB (0%)
Language : Polish
Default : No
Forced : No

Text #23
ID : 25
Format : UTF-8
Codec ID : S_TEXT/UTF8
Codec ID/Info : UTF-8 Plain Text
Duration : 1 h 6 min
Bit rate : 80 b/s
Frame rate : 0.221 FPS
Count of elements : 883
Stream size : 39.3 KiB (0%)
Language : Portuguese
Default : No
Forced : No

Text #24
ID : 26
Format : UTF-8
Codec ID : S_TEXT/UTF8
Codec ID/Info : UTF-8 Plain Text
Duration : 1 h 6 min
Bit rate : 81 b/s
Frame rate : 0.228 FPS
Count of elements : 910
Stream size : 40.0 KiB (0%)
Title : Brazil
Language : Portuguese (BR)
Default : No
Forced : No

Text #25
ID : 27
Format : UTF-8
Codec ID : S_TEXT/UTF8
Codec ID/Info : UTF-8 Plain Text
Duration : 1 h 6 min
Bit rate : 85 b/s
Frame rate : 0.216 FPS
Count of elements : 864
Stream size : 41.9 KiB (0%)
Language : Romanian
Default : No
Forced : No

Text #26
ID : 28
Format : UTF-8
Codec ID : S_TEXT/UTF8
Codec ID/Info : UTF-8 Plain Text
Duration : 1 h 6 min
Bit rate : 135 b/s
Frame rate : 0.225 FPS
Count of elements : 899
Stream size : 66.1 KiB (0%)
Language : Russian
Default : No
Forced : No

Text #27
ID : 29
Format : UTF-8
Codec ID : S_TEXT/UTF8
Codec ID/Info : UTF-8 Plain Text
Duration : 1 h 6 min
Bit rate : 78 b/s
Frame rate : 0.218 FPS
Count of elements : 871
Stream size : 38.0 KiB (0%)
Language : Swedish
Default : No
Forced : No

Text #28
ID : 30
Format : UTF-8
Codec ID : S_TEXT/UTF8
Codec ID/Info : UTF-8 Plain Text
Duration : 1 h 6 min
Bit rate : 197 b/s
Frame rate : 0.228 FPS
Count of elements : 911
Stream size : 96.2 KiB (0%)
Language : Thai
Default : No
Forced : No

Text #29
ID : 31
Format : UTF-8
Codec ID : S_TEXT/UTF8
Codec ID/Info : UTF-8 Plain Text
Duration : 1 h 6 min
Bit rate : 80 b/s
Frame rate : 0.222 FPS
Count of elements : 885
Stream size : 39.2 KiB (0%)
Language : Turkish
Default : No
Forced : No

Text #30
ID : 32
Format : UTF-8
Codec ID : S_TEXT/UTF8
Codec ID/Info : UTF-8 Plain Text
Duration : 1 h 6 min
Bit rate : 132 b/s
Frame rate : 0.228 FPS
Count of elements : 909
Stream size : 64.6 KiB (0%)
Language : Ukrainian
Default : No
Forced : No

Text #31
ID : 33
Format : UTF-8
Codec ID : S_TEXT/UTF8
Codec ID/Info : UTF-8 Plain Text
Duration : 1 h 6 min
Bit rate : 115 b/s
Frame rate : 0.229 FPS
Count of elements : 913
Stream size : 56.3 KiB (0%)
Language : Vietnamese
Default : No
Forced : No

Text #32
ID : 34
Format : UTF-8
Codec ID : S_TEXT/UTF8
Codec ID/Info : UTF-8 Plain Text
Duration : 1 h 6 min
Bit rate : 75 b/s
Frame rate : 0.228 FPS
Count of elements : 909
Stream size : 36.8 KiB (0%)
Title : 简体
Language : Chinese (Simplied)

Default : No
Forced : No

Text #33
ID : 35
Format : UTF-8
Codec ID : S_TEXT/UTF8
Codec ID/Info : UTF-8 Plain Text
Duration : 1 h 6 min
Bit rate : 73 b/s
Frame rate : 0.229 FPS
Count of elements : 915
Stream size : 35.9 KiB (0%)
Title : 繁体
Language : Chinese (Traditional)

Default : No
Forced : No

推荐使用qBittorrent、uTorrent、BitComet等下载软件,有条件的推荐115或会员软件下载!

下载地址

游客,如果您要查看本帖隐藏内容请回复

游客,如果您要查看本帖隐藏内容请回复

游客,如果您要查看本帖隐藏内容请回复







上一篇:路的尽头 [简繁中字] / End.of.the.Road (2022) 4K高清版本下载
下一篇:爱在托斯卡纳 [简繁中字] / Toscana (2022) 4K高清版本下载
回复

使用道具 举报

您需要登录后才可以回帖 登录 | 立即注册

本版积分规则

精彩图文
Archiver|手机版|TAG|Sitemap|新帖|专题|联系我们:邮箱: 4kjia.com@gmail.com   

4k家园   ©2019