[4K电影] 爱在托斯卡纳 [简繁中字] / Toscana (2022) 4K高清版本下载

[复制链接]

主题

帖子

0

积分

超级版主

Rank: 8Rank: 8

积分
0
 楼主| 发表于 2023-1-5 12:47:22 | 显示全部楼层 |阅读模式
本帖最后由 最爱4K哟 于 2023-1-5 13:18 编辑

QQ图片20230105131727_副本.png

◎译  名 爱在托斯卡纳/Toskana/Toskania/爱在托斯卡尼
◎片  名 Toscana
◎年  代 2022
◎产  地 丹麦
◎类  别 剧情/爱情
◎语  言 丹麦语/意大利语
◎上映日期 2022-05-18(丹麦网络)
◎IMDb评分 5.7/10 from 7659 users 更新 : 2023-01-03
◎IMDb链接 https://www.imdb.com/title/tt13276352/
◎豆瓣评分 6.3/10 from 717 users  更新 : 2023-01-05
◎豆瓣链接 https://movie.douban.com/subject/35342564/
◎导  演 迈赫迪·阿瓦兹 Mehdi Avaz
◎编  剧 迈赫迪·阿瓦兹 Mehdi Avaz / 尼古拉·谢尔菲格 Nikolaj Scherfig
◎主  演 克里斯蒂安娜·德朗娜 Cristiana Dell'Anna
       图厄·埃尔斯特德·拉斯姆森 Thue Ersted Rasmussen
       塞巴斯汀·杰森 Sebastian Jessen
       安德斯·麦特森 Anders Matthesen
       拉克·温特·安德森 L?rke Winther Andersen
       萨拉·朱尔·威纳 Sarah Juel Werner
       格茜塔·诺比 Ghita N?rby
       阿里·亚历山大 Ari Alexander
       安德里亚·博斯卡 Andrea Bosca
       卡罗琳·布莱格曼 Karoline Brygmann
       皮诺·阿门多拉 Pino Ammendola


◎简  介


  当一位丹麦厨师前往托斯卡纳出售他父亲的生意时,他遇到了一位当地妇女,她激励他重新思考他对生活和爱情的态度。
Video
ID : 1
Format : HEVC
Format/Info : High Efficiency Video Coding
Format profile : Main 10@L5@Main
HDR format : Dolby Vision, Version 1.0, dvhe.08.06, BL+RPU, HDR10 compatible / SMPTE ST 2086, HDR10 compatible
Codec ID : V_MPEGH/ISO/HEVC
Duration : 1 h 31 min
Bit rate : 10.9 Mb/s
Width : 3 840 pixels
Height : 2 160 pixels
Display aspect ratio : 16:9
Frame rate mode : Constant
Frame rate : 24.000 FPS
Color space : YUV
Chroma subsampling : 4:2:0 (Type 2)
Bit depth : 10 bits
Bits/(Pixel*Frame) : 0.055
Stream size : 6.97 GiB (89%)
Default : Yes
Forced : No
Color range : Limited
Color primaries : BT.2020
Transfer characteristics : PQ
Matrix coefficients : BT.2020 non-constant
Mastering display color primaries : Display P3
Mastering display luminance : min: 0.0001 cd/m2, max: 1000 cd/m2
Maximum Content Light Level : 1036 cd/m2
Maximum Frame-Average Light Level : 237 cd/m2

Audio #1
ID : 2
Format : E-AC-3
Format/Info : Enhanced AC-3
Commercial name : Dolby Digital Plus
Codec ID : A_EAC3
Duration : 1 h 33 min
Bit rate mode : Constant
Bit rate : 640 kb/s
Channel(s) : 6 channels
Channel layout : L R C LFE Ls Rs
Sampling rate : 48.0 kHz
Frame rate : 31.250 FPS (1536 SPF)
Compression mode : Lossy
Stream size : 427 MiB (5%)
Title : Danish
Language : Danish
Service kind : Complete Main
Default : Yes
Forced : No

Audio #2
ID : 3
Format : E-AC-3
Format/Info : Enhanced AC-3
Commercial name : Dolby Digital Plus
Codec ID : A_EAC3
Duration : 1 h 33 min
Bit rate mode : Constant
Bit rate : 640 kb/s
Channel(s) : 6 channels
Channel layout : L R C LFE Ls Rs
Sampling rate : 48.0 kHz
Frame rate : 31.250 FPS (1536 SPF)
Compression mode : Lossy
Stream size : 427 MiB (5%)
Title : English
Language : English
Service kind : Complete Main
Default : No
Forced : No

Text #1
ID : 4
Format : UTF-8
Codec ID : S_TEXT/UTF8
Codec ID/Info : UTF-8 Plain Text
Duration : 1 h 28 min
Bit rate : 23 b/s
Frame rate : 0.090 FPS
Count of elements : 478
Stream size : 15.2 KiB (0%)
Title : Danish (Forced)
Language : Danish
Default : Yes
Forced : Yes

Text #2
ID : 5
Format : UTF-8
Codec ID : S_TEXT/UTF8
Codec ID/Info : UTF-8 Plain Text
Duration : 1 h 26 min
Bit rate : 0 b/s
Frame rate : 0.001 FPS
Count of elements : 7
Stream size : 170 Bytes (0%)
Title : English (Forced)
Language : English
Default : No
Forced : Yes

Text #3
ID : 6
Format : UTF-8
Codec ID : S_TEXT/UTF8
Codec ID/Info : UTF-8 Plain Text
Duration : 1 h 30 min
Bit rate : 56 b/s
Frame rate : 0.144 FPS
Count of elements : 783
Stream size : 37.7 KiB (0%)
Title : Arabic
Language : Arabic
Default : No
Forced : No

Text #4
ID : 7
Format : UTF-8
Codec ID : S_TEXT/UTF8
Codec ID/Info : UTF-8 Plain Text
Duration : 1 h 30 min
Bit rate : 33 b/s
Frame rate : 0.142 FPS
Count of elements : 775
Stream size : 22.4 KiB (0%)
Title : Czech
Language : Czech
Default : No
Forced : No

Text #5
ID : 8
Format : UTF-8
Codec ID : S_TEXT/UTF8
Codec ID/Info : UTF-8 Plain Text
Duration : 1 h 28 min
Bit rate : 43 b/s
Frame rate : 0.156 FPS
Count of elements : 831
Stream size : 28.4 KiB (0%)
Title : Danish (SDH)
Language : Danish
Default : No
Forced : No

Text #6
ID : 9
Format : UTF-8
Codec ID : S_TEXT/UTF8
Codec ID/Info : UTF-8 Plain Text
Duration : 1 h 30 min
Bit rate : 34 b/s
Frame rate : 0.143 FPS
Count of elements : 777
Stream size : 22.8 KiB (0%)
Title : German
Language : German
Default : No
Forced : No

Text #7
ID : 10
Format : UTF-8
Codec ID : S_TEXT/UTF8
Codec ID/Info : UTF-8 Plain Text
Duration : 1 h 30 min
Bit rate : 56 b/s
Frame rate : 0.141 FPS
Count of elements : 770
Stream size : 37.6 KiB (0%)
Title : Modern Greek (1453-)
Language : Greek
Default : No
Forced : No

Text #8
ID : 11
Format : UTF-8
Codec ID : S_TEXT/UTF8
Codec ID/Info : UTF-8 Plain Text
Duration : 1 h 28 min
Bit rate : 39 b/s
Frame rate : 0.167 FPS
Count of elements : 885
Stream size : 25.8 KiB (0%)
Title : English
Language : English
Default : No
Forced : No

Text #9
ID : 12
Format : UTF-8
Codec ID : S_TEXT/UTF8
Codec ID/Info : UTF-8 Plain Text
Duration : 1 h 30 min
Bit rate : 15 b/s
Frame rate : 0.069 FPS
Count of elements : 378
Stream size : 10.0 KiB (0%)
Title : English
Language : English
Default : No
Forced : No

Text #10
ID : 13
Format : UTF-8
Codec ID : S_TEXT/UTF8
Codec ID/Info : UTF-8 Plain Text
Duration : 1 h 28 min
Bit rate : 45 b/s
Frame rate : 0.193 FPS
Count of elements : 1029
Stream size : 29.6 KiB (0%)
Title : English (SDH)
Language : English
Default : No
Forced : No

Text #11
ID : 14
Format : UTF-8
Codec ID : S_TEXT/UTF8
Codec ID/Info : UTF-8 Plain Text
Duration : 1 h 30 min
Bit rate : 33 b/s
Frame rate : 0.153 FPS
Count of elements : 835
Stream size : 22.5 KiB (0%)
Title : Spanish
Language : Spanish
Default : No
Forced : No

Text #12
ID : 15
Format : UTF-8
Codec ID : S_TEXT/UTF8
Codec ID/Info : UTF-8 Plain Text
Duration : 1 h 30 min
Bit rate : 32 b/s
Frame rate : 0.151 FPS
Count of elements : 823
Stream size : 21.4 KiB (0%)
Title : Spanish
Language : Spanish
Default : No
Forced : No

Text #13
ID : 16
Format : UTF-8
Codec ID : S_TEXT/UTF8
Codec ID/Info : UTF-8 Plain Text
Duration : 1 h 30 min
Bit rate : 31 b/s
Frame rate : 0.140 FPS
Count of elements : 762
Stream size : 21.3 KiB (0%)
Title : Finnish
Language : Finnish
Default : No
Forced : No

Text #14
ID : 17
Format : UTF-8
Codec ID : S_TEXT/UTF8
Codec ID/Info : UTF-8 Plain Text
Duration : 1 h 30 min
Bit rate : 34 b/s
Frame rate : 0.144 FPS
Count of elements : 786
Stream size : 23.2 KiB (0%)
Title : French
Language : French
Default : No
Forced : No

Text #15
ID : 18
Format : UTF-8
Codec ID : S_TEXT/UTF8
Codec ID/Info : UTF-8 Plain Text
Duration : 1 h 30 min
Bit rate : 54 b/s
Frame rate : 0.140 FPS
Count of elements : 761
Stream size : 36.2 KiB (0%)
Title : Hebrew
Language : Hebrew
Default : No
Forced : No

Text #16
ID : 19
Format : UTF-8
Codec ID : S_TEXT/UTF8
Codec ID/Info : UTF-8 Plain Text
Duration : 1 h 30 min
Bit rate : 28 b/s
Frame rate : 0.144 FPS
Count of elements : 786
Stream size : 19.2 KiB (0%)
Title : Croatian
Language : Croatian
Default : No
Forced : No

Text #17
ID : 20
Format : UTF-8
Codec ID : S_TEXT/UTF8
Codec ID/Info : UTF-8 Plain Text
Duration : 1 h 30 min
Bit rate : 33 b/s
Frame rate : 0.141 FPS
Count of elements : 767
Stream size : 22.1 KiB (0%)
Title : Hungarian
Language : Hungarian
Default : No
Forced : No

Text #18
ID : 21
Format : UTF-8
Codec ID : S_TEXT/UTF8
Codec ID/Info : UTF-8 Plain Text
Duration : 1 h 30 min
Bit rate : 33 b/s
Frame rate : 0.144 FPS
Count of elements : 786
Stream size : 22.3 KiB (0%)
Title : Indonesian
Language : Indonesian
Default : No
Forced : No

Text #19
ID : 22
Format : UTF-8
Codec ID : S_TEXT/UTF8
Codec ID/Info : UTF-8 Plain Text
Duration : 1 h 28 min
Bit rate : 28 b/s
Frame rate : 0.126 FPS
Count of elements : 669
Stream size : 18.7 KiB (0%)
Title : Italian
Language : Italian
Default : No
Forced : No

Text #20
ID : 23
Format : UTF-8
Codec ID : S_TEXT/UTF8
Codec ID/Info : UTF-8 Plain Text
Duration : 1 h 30 min
Bit rate : 37 b/s
Frame rate : 0.152 FPS
Count of elements : 830
Stream size : 25.2 KiB (0%)
Title : Japanese
Language : Japanese
Default : No
Forced : No

Text #21
ID : 24
Format : UTF-8
Codec ID : S_TEXT/UTF8
Codec ID/Info : UTF-8 Plain Text
Duration : 1 h 30 min
Bit rate : 45 b/s
Frame rate : 0.147 FPS
Count of elements : 803
Stream size : 30.1 KiB (0%)
Title : Korean
Language : Korean
Default : No
Forced : No

Text #22
ID : 25
Format : UTF-8
Codec ID : S_TEXT/UTF8
Codec ID/Info : UTF-8 Plain Text
Duration : 1 h 30 min
Bit rate : 33 b/s
Frame rate : 0.143 FPS
Count of elements : 780
Stream size : 22.0 KiB (0%)
Title : Malay (macrolanguage)
Language : Malay
Default : No
Forced : No

Text #23
ID : 26
Format : UTF-8
Codec ID : S_TEXT/UTF8
Codec ID/Info : UTF-8 Plain Text
Duration : 1 h 30 min
Bit rate : 31 b/s
Frame rate : 0.132 FPS
Count of elements : 718
Stream size : 20.8 KiB (0%)
Title : Norwegian Bokmål
Language : Norwegian Bokmal
Default : No
Forced : No

Text #24
ID : 27
Format : UTF-8
Codec ID : S_TEXT/UTF8
Codec ID/Info : UTF-8 Plain Text
Duration : 1 h 30 min
Bit rate : 32 b/s
Frame rate : 0.133 FPS
Count of elements : 725
Stream size : 21.4 KiB (0%)
Title : Dutch
Language : Dutch
Default : No
Forced : No

Text #25
ID : 28
Format : UTF-8
Codec ID : S_TEXT/UTF8
Codec ID/Info : UTF-8 Plain Text
Duration : 1 h 30 min
Bit rate : 32 b/s
Frame rate : 0.141 FPS
Count of elements : 766
Stream size : 21.4 KiB (0%)
Title : Polish
Language : Polish
Default : No
Forced : No

Text #26
ID : 29
Format : UTF-8
Codec ID : S_TEXT/UTF8
Codec ID/Info : UTF-8 Plain Text
Duration : 1 h 30 min
Bit rate : 33 b/s
Frame rate : 0.143 FPS
Count of elements : 778
Stream size : 22.4 KiB (0%)
Title : Portuguese
Language : Portuguese
Default : No
Forced : No

Text #27
ID : 30
Format : UTF-8
Codec ID : S_TEXT/UTF8
Codec ID/Info : UTF-8 Plain Text
Duration : 1 h 30 min
Bit rate : 34 b/s
Frame rate : 0.143 FPS
Count of elements : 778
Stream size : 23.1 KiB (0%)
Title : Portuguese
Language : Portuguese
Default : No
Forced : No

Text #28
ID : 31
Format : UTF-8
Codec ID : S_TEXT/UTF8
Codec ID/Info : UTF-8 Plain Text
Duration : 1 h 28 min
Bit rate : 35 b/s
Frame rate : 0.130 FPS
Count of elements : 689
Stream size : 23.0 KiB (0%)
Title : Romanian
Language : Romanian
Default : No
Forced : No

Text #29
ID : 32
Format : UTF-8
Codec ID : S_TEXT/UTF8
Codec ID/Info : UTF-8 Plain Text
Duration : 1 h 30 min
Bit rate : 57 b/s
Frame rate : 0.143 FPS
Count of elements : 782
Stream size : 38.0 KiB (0%)
Title : Russian
Language : Russian
Default : No
Forced : No

Text #30
ID : 33
Format : UTF-8
Codec ID : S_TEXT/UTF8
Codec ID/Info : UTF-8 Plain Text
Duration : 1 h 30 min
Bit rate : 35 b/s
Frame rate : 0.126 FPS
Count of elements : 689
Stream size : 23.7 KiB (0%)
Title : Swedish
Language : Swedish
Default : No
Forced : No

Text #31
ID : 34
Format : UTF-8
Codec ID : S_TEXT/UTF8
Codec ID/Info : UTF-8 Plain Text
Duration : 1 h 30 min
Bit rate : 88 b/s
Frame rate : 0.168 FPS
Count of elements : 913
Stream size : 58.8 KiB (0%)
Title : Thai
Language : Thai
Default : No
Forced : No

Text #32
ID : 35
Format : UTF-8
Codec ID : S_TEXT/UTF8
Codec ID/Info : UTF-8 Plain Text
Duration : 1 h 30 min
Bit rate : 33 b/s
Frame rate : 0.125 FPS
Count of elements : 682
Stream size : 22.3 KiB (0%)
Title : Turkish
Language : Turkish
Default : No
Forced : No

Text #33
ID : 36
Format : UTF-8
Codec ID : S_TEXT/UTF8
Codec ID/Info : UTF-8 Plain Text
Duration : 1 h 30 min
Bit rate : 53 b/s
Frame rate : 0.143 FPS
Count of elements : 779
Stream size : 35.7 KiB (0%)
Title : Ukrainian
Language : Ukrainian
Default : No
Forced : No

Text #34
ID : 37
Format : UTF-8
Codec ID : S_TEXT/UTF8
Codec ID/Info : UTF-8 Plain Text
Duration : 1 h 30 min
Bit rate : 53 b/s
Frame rate : 0.141 FPS
Count of elements : 769
Stream size : 35.5 KiB (0%)
Title : Vietnamese
Language : Vietnamese
Default : No
Forced : No

Text #35
ID : 38
Format : UTF-8
Codec ID : S_TEXT/UTF8
Codec ID/Info : UTF-8 Plain Text
Duration : 1 h 30 min
Bit rate : 35 b/s
Frame rate : 0.147 FPS
Count of elements : 801
Stream size : 23.5 KiB (0%)
Title : 简体
Language : Chinese

Default : No
Forced : No

Text #36
ID : 39
Format : UTF-8
Codec ID : S_TEXT/UTF8
Codec ID/Info : UTF-8 Plain Text
Duration : 1 h 30 min
Bit rate : 35 b/s
Frame rate : 0.143 FPS
Count of elements : 777
Stream size : 23.8 KiB (0%)
Title : 繁体
Language : Chinese

Default : No
Forced : No

Menu
00:00:00.000 : enart 01
01:29:39.450 : en:Credits

推荐使用qBittorrent、uTorrent、BitComet等下载软件,有条件的推荐115或会员软件下载!

下载地址

游客,如果您要查看本帖隐藏内容请回复





上一篇:喵星人的奇思妙想 [简繁中字] (2022) 4K高清版本下载
下一篇:锡尔弗顿之围 [简繁中字]/Silverton Siege‎ (2022) 4K高清版本下载
回复

使用道具 举报

您需要登录后才可以回帖 登录 | 立即注册

本版积分规则

精彩图文
Archiver|手机版|TAG|Sitemap|新帖|专题|联系我们:邮箱: 4kjia.com@gmail.com   

4k家园   ©2019