[4K电影] 我们都无法成为大人 [简繁中字] (2021) 4K高清版本下载

[复制链接]

主题

帖子

0

积分

超级版主

Rank: 8Rank: 8

积分
0
 楼主| 发表于 2023-1-5 13:01:25 | 显示全部楼层 |阅读模式
本帖最后由 最爱4K哟 于 2023-1-5 13:16 编辑

QQ图片20230105131950_副本.png

◎标  题 我们都无法成为大人
◎译  名 原来我们都没长大 / 最后我们都没长大 / We Couldn’t Become Adults
◎片  名 ボクたちはみんな大人になれなかった
◎年  代 2021
◎产  地 日本
◎类  别 爱情
◎语  言 日语
◎上映日期 2021-11-05(日本)
◎IMDb评分 6.5/10 from 835 users 更新 : 2023-01-03
◎IMDb链接 https://www.imdb.com/title/tt14236064/
◎豆瓣评分 7.5/10 from 7302 users 更新 : 2023-01-05
◎豆瓣链接 https://movie.douban.com/subject/35259430/
◎片  长 124分钟
◎导  演 森义仁 Yoshihito Mori / 河合勇人 Hayato Kawai
◎编  剧 燃え殻 Moegara / 高田亮 Ryô Takada
◎演  员 森山未来 Mirai Moriyama
       伊藤沙莉 Sairi Itô
       东出昌大 Masahiro Higashide
       浅野堇 Sumire
       筱原笃 Atsushi Shinohara
       大岛优子 Yuko Oshima
       萩原圣人 Masato Hagiwara
       冈山天音 Okayama Amane
       奥野瑛太 Eita Okuno
       原日出子 Hideko Hara
       平岳大 Takehiro Hira
       片山萌美 Moemi Katayama
       高岛政伸 Masanobu Takashima
       拉沙尔石井 Rasâru Ishii
       丁瑞奇 Rich Ting
       德永绘里 Eri Tokunaga
       渡边大知 Daichi Watanabe
       松浦祐也 Yûya Matsuura
       般若 Han'nya


◎简  介


  Netflix与C&I entertainment共同策划制作。改编自日本作家燃烬(燃え殻)的同名原著小说《原来我们都没长大》(ボクたちはみんな大人になれなかった)。
在早高峰的电车上,Facebook向我推送了“你可能认识的人”。那是我的前女友,我爱得最深的人。恍惚间,我点下了“申请加为好友”的按键。
Video
ID : 1
Format : HEVC
Format/Info : High Efficiency Video Coding
Format profile : Main 10@L5@Main
Codec ID : V_MPEGH/ISO/HEVC
Duration : 2 h 4 min
Bit rate : 11.7 Mb/s
Width : 3 840 pixels
Height : 2 160 pixels
Display aspect ratio : 16:9
Frame rate mode : Constant
Frame rate : 23.976 (24000/1001) FPS
Color space : YUV
Chroma subsampling : 4:2:0
Bit depth : 10 bits
Bits/(Pixel*Frame) : 0.059
Stream size : 10.2 GiB (90%)
Default : Yes
Forced : No
Color range : Limited
Color primaries : BT.709
Transfer characteristics : BT.709
Matrix coefficients : BT.709

Audio #1
ID : 2
Format : E-AC-3
Format/Info : Enhanced AC-3
Commercial name : Dolby Digital Plus
Codec ID : A_EAC3
Duration : 2 h 4 min
Bit rate mode : Constant
Bit rate : 640 kb/s
Channel(s) : 6 channels
Channel layout : L R C LFE Ls Rs
Sampling rate : 48.0 kHz
Frame rate : 31.250 FPS (1536 SPF)
Compression mode : Lossy
Stream size : 571 MiB (5%)
Title : English
Language : English
Service kind : Complete Main
Default : Yes
Forced : No

Audio #2
ID : 3
Format : E-AC-3
Format/Info : Enhanced AC-3
Commercial name : Dolby Digital Plus
Codec ID : A_EAC3
Duration : 2 h 4 min
Bit rate mode : Constant
Bit rate : 640 kb/s
Channel(s) : 6 channels
Channel layout : L R C LFE Ls Rs
Sampling rate : 48.0 kHz
Frame rate : 31.250 FPS (1536 SPF)
Compression mode : Lossy
Stream size : 571 MiB (5%)
Title : Japanese
Language : Japanese
Service kind : Complete Main
Default : No
Forced : No

Text #1
ID : 4
Format : UTF-8
Codec ID : S_TEXT/UTF8
Codec ID/Info : UTF-8 Plain Text
Duration : 2 h 1 min
Bit rate : 2 b/s
Frame rate : 0.010 FPS
Count of elements : 70
Stream size : 2.12 KiB (0%)
Title : English (Forced)
Language : English
Default : Yes
Forced : Yes

Text #2
ID : 5
Format : UTF-8
Codec ID : S_TEXT/UTF8
Codec ID/Info : UTF-8 Plain Text
Duration : 31 min 29 s
Bit rate : 0 b/s
Frame rate : 0.001 FPS
Count of elements : 2
Stream size : 54.0 Bytes (0%)
Title : Japanese (Forced)
Language : Japanese
Default : No
Forced : Yes

Text #3
ID : 6
Format : UTF-8
Codec ID : S_TEXT/UTF8
Codec ID/Info : UTF-8 Plain Text
Duration : 2 h 4 min
Bit rate : 63 b/s
Frame rate : 0.172 FPS
Count of elements : 1280
Stream size : 58.1 KiB (0%)
Title : Arabic
Language : Arabic
Default : No
Forced : No

Text #4
ID : 7
Format : UTF-8
Codec ID : S_TEXT/UTF8
Codec ID/Info : UTF-8 Plain Text
Duration : 2 h 4 min
Bit rate : 37 b/s
Frame rate : 0.172 FPS
Count of elements : 1280
Stream size : 34.4 KiB (0%)
Title : Czech
Language : Czech
Default : No
Forced : No

Text #5
ID : 8
Format : UTF-8
Codec ID : S_TEXT/UTF8
Codec ID/Info : UTF-8 Plain Text
Duration : 2 h 4 min
Bit rate : 37 b/s
Frame rate : 0.172 FPS
Count of elements : 1280
Stream size : 34.3 KiB (0%)
Title : Danish
Language : Danish
Default : No
Forced : No

Text #6
ID : 9
Format : UTF-8
Codec ID : S_TEXT/UTF8
Codec ID/Info : UTF-8 Plain Text
Duration : 2 h 4 min
Bit rate : 39 b/s
Frame rate : 0.172 FPS
Count of elements : 1278
Stream size : 36.1 KiB (0%)
Title : German
Language : German
Default : No
Forced : No

Text #7
ID : 10
Format : UTF-8
Codec ID : S_TEXT/UTF8
Codec ID/Info : UTF-8 Plain Text
Duration : 2 h 4 min
Bit rate : 62 b/s
Frame rate : 0.172 FPS
Count of elements : 1280
Stream size : 56.5 KiB (0%)
Title : Modern Greek (1453-)
Language : Greek
Default : No
Forced : No

Text #8
ID : 11
Format : UTF-8
Codec ID : S_TEXT/UTF8
Codec ID/Info : UTF-8 Plain Text
Duration : 2 h 4 min
Bit rate : 38 b/s
Frame rate : 0.172 FPS
Count of elements : 1277
Stream size : 35.1 KiB (0%)
Title : English
Language : English
Default : No
Forced : No

Text #9
ID : 12
Format : UTF-8
Codec ID : S_TEXT/UTF8
Codec ID/Info : UTF-8 Plain Text
Duration : 2 h 4 min
Bit rate : 40 b/s
Frame rate : 0.173 FPS
Count of elements : 1285
Stream size : 36.7 KiB (0%)
Title : Spanish
Language : Spanish
Default : No
Forced : No

Text #10
ID : 13
Format : UTF-8
Codec ID : S_TEXT/UTF8
Codec ID/Info : UTF-8 Plain Text
Duration : 2 h 4 min
Bit rate : 37 b/s
Frame rate : 0.172 FPS
Count of elements : 1283
Stream size : 34.3 KiB (0%)
Title : Spanish
Language : Spanish
Default : No
Forced : No

Text #11
ID : 14
Format : UTF-8
Codec ID : S_TEXT/UTF8
Codec ID/Info : UTF-8 Plain Text
Duration : 2 h 4 min
Bit rate : 37 b/s
Frame rate : 0.172 FPS
Count of elements : 1280
Stream size : 34.4 KiB (0%)
Title : Finnish
Language : Finnish
Default : No
Forced : No

Text #12
ID : 15
Format : UTF-8
Codec ID : S_TEXT/UTF8
Codec ID/Info : UTF-8 Plain Text
Duration : 2 h 4 min
Bit rate : 39 b/s
Frame rate : 0.171 FPS
Count of elements : 1277
Stream size : 35.6 KiB (0%)
Title : French
Language : French
Default : No
Forced : No

Text #13
ID : 16
Format : UTF-8
Codec ID : S_TEXT/UTF8
Codec ID/Info : UTF-8 Plain Text
Duration : 2 h 4 min
Bit rate : 57 b/s
Frame rate : 0.172 FPS
Count of elements : 1280
Stream size : 52.3 KiB (0%)
Title : Hebrew
Language : Hebrew
Default : No
Forced : No

Text #14
ID : 17
Format : UTF-8
Codec ID : S_TEXT/UTF8
Codec ID/Info : UTF-8 Plain Text
Duration : 2 h 4 min
Bit rate : 32 b/s
Frame rate : 0.172 FPS
Count of elements : 1280
Stream size : 29.3 KiB (0%)
Title : Croatian
Language : Croatian
Default : No
Forced : No

Text #15
ID : 18
Format : UTF-8
Codec ID : S_TEXT/UTF8
Codec ID/Info : UTF-8 Plain Text
Duration : 2 h 4 min
Bit rate : 37 b/s
Frame rate : 0.172 FPS
Count of elements : 1280
Stream size : 33.7 KiB (0%)
Title : Hungarian
Language : Hungarian
Default : No
Forced : No

Text #16
ID : 19
Format : UTF-8
Codec ID : S_TEXT/UTF8
Codec ID/Info : UTF-8 Plain Text
Duration : 2 h 4 min
Bit rate : 38 b/s
Frame rate : 0.172 FPS
Count of elements : 1280
Stream size : 35.1 KiB (0%)
Title : Indonesian
Language : Indonesian
Default : No
Forced : No

Text #17
ID : 20
Format : UTF-8
Codec ID : S_TEXT/UTF8
Codec ID/Info : UTF-8 Plain Text
Duration : 2 h 4 min
Bit rate : 37 b/s
Frame rate : 0.172 FPS
Count of elements : 1280
Stream size : 33.7 KiB (0%)
Title : Italian
Language : Italian
Default : No
Forced : No

Text #18
ID : 21
Format : UTF-8
Codec ID : S_TEXT/UTF8
Codec ID/Info : UTF-8 Plain Text
Duration : 2 h 3 min
Bit rate : 68 b/s
Frame rate : 0.197 FPS
Count of elements : 1462
Stream size : 62.0 KiB (0%)
Title : Japanese (SDH)
Language : Japanese
Default : No
Forced : No

Text #19
ID : 22
Format : UTF-8
Codec ID : S_TEXT/UTF8
Codec ID/Info : UTF-8 Plain Text
Duration : 2 h 4 min
Bit rate : 46 b/s
Frame rate : 0.173 FPS
Count of elements : 1285
Stream size : 42.1 KiB (0%)
Title : Korean
Language : Korean
Default : No
Forced : No

Text #20
ID : 23
Format : UTF-8
Codec ID : S_TEXT/UTF8
Codec ID/Info : UTF-8 Plain Text
Duration : 2 h 4 min
Bit rate : 38 b/s
Frame rate : 0.172 FPS
Count of elements : 1280
Stream size : 34.7 KiB (0%)
Title : Malay (macrolanguage)
Language : Malay
Default : No
Forced : No

Text #21
ID : 24
Format : UTF-8
Codec ID : S_TEXT/UTF8
Codec ID/Info : UTF-8 Plain Text
Duration : 2 h 4 min
Bit rate : 36 b/s
Frame rate : 0.172 FPS
Count of elements : 1280
Stream size : 33.0 KiB (0%)
Title : Norwegian Bokmål
Language : Norwegian Bokmal
Default : No
Forced : No

Text #22
ID : 25
Format : UTF-8
Codec ID : S_TEXT/UTF8
Codec ID/Info : UTF-8 Plain Text
Duration : 2 h 4 min
Bit rate : 33 b/s
Frame rate : 0.171 FPS
Count of elements : 1274
Stream size : 30.9 KiB (0%)
Title : Dutch
Language : Dutch
Default : No
Forced : No

Text #23
ID : 26
Format : UTF-8
Codec ID : S_TEXT/UTF8
Codec ID/Info : UTF-8 Plain Text
Duration : 2 h 4 min
Bit rate : 34 b/s
Frame rate : 0.172 FPS
Count of elements : 1278
Stream size : 31.1 KiB (0%)
Title : Polish
Language : Polish
Default : No
Forced : No

Text #24
ID : 27
Format : UTF-8
Codec ID : S_TEXT/UTF8
Codec ID/Info : UTF-8 Plain Text
Duration : 2 h 4 min
Bit rate : 36 b/s
Frame rate : 0.172 FPS
Count of elements : 1280
Stream size : 33.5 KiB (0%)
Title : Portuguese
Language : Portuguese
Default : No
Forced : No

Text #25
ID : 28
Format : UTF-8
Codec ID : S_TEXT/UTF8
Codec ID/Info : UTF-8 Plain Text
Duration : 2 h 4 min
Bit rate : 37 b/s
Frame rate : 0.172 FPS
Count of elements : 1280
Stream size : 34.4 KiB (0%)
Title : Portuguese
Language : Portuguese
Default : No
Forced : No

Text #26
ID : 29
Format : UTF-8
Codec ID : S_TEXT/UTF8
Codec ID/Info : UTF-8 Plain Text
Duration : 2 h 4 min
Bit rate : 42 b/s
Frame rate : 0.172 FPS
Count of elements : 1280
Stream size : 38.2 KiB (0%)
Title : Romanian
Language : Romanian
Default : No
Forced : No

Text #27
ID : 30
Format : UTF-8
Codec ID : S_TEXT/UTF8
Codec ID/Info : UTF-8 Plain Text
Duration : 2 h 4 min
Bit rate : 56 b/s
Frame rate : 0.172 FPS
Count of elements : 1280
Stream size : 51.8 KiB (0%)
Title : Russian
Language : Russian
Default : No
Forced : No

Text #28
ID : 31
Format : UTF-8
Codec ID : S_TEXT/UTF8
Codec ID/Info : UTF-8 Plain Text
Duration : 2 h 4 min
Bit rate : 37 b/s
Frame rate : 0.172 FPS
Count of elements : 1280
Stream size : 33.8 KiB (0%)
Title : Swedish
Language : Swedish
Default : No
Forced : No

Text #29
ID : 32
Format : UTF-8
Codec ID : S_TEXT/UTF8
Codec ID/Info : UTF-8 Plain Text
Duration : 2 h 4 min
Bit rate : 99 b/s
Frame rate : 0.172 FPS
Count of elements : 1281
Stream size : 90.9 KiB (0%)
Title : Thai
Language : Thai
Default : No
Forced : No

Text #30
ID : 33
Format : UTF-8
Codec ID : S_TEXT/UTF8
Codec ID/Info : UTF-8 Plain Text
Duration : 2 h 4 min
Bit rate : 37 b/s
Frame rate : 0.172 FPS
Count of elements : 1280
Stream size : 34.5 KiB (0%)
Title : Turkish
Language : Turkish
Default : No
Forced : No

Text #31
ID : 34
Format : UTF-8
Codec ID : S_TEXT/UTF8
Codec ID/Info : UTF-8 Plain Text
Duration : 2 h 4 min
Bit rate : 61 b/s
Frame rate : 0.172 FPS
Count of elements : 1280
Stream size : 56.1 KiB (0%)
Title : Ukrainian
Language : Ukrainian
Default : No
Forced : No

Text #32
ID : 35
Format : UTF-8
Codec ID : S_TEXT/UTF8
Codec ID/Info : UTF-8 Plain Text
Duration : 2 h 4 min
Bit rate : 54 b/s
Frame rate : 0.172 FPS
Count of elements : 1281
Stream size : 49.7 KiB (0%)
Title : Vietnamese
Language : Vietnamese
Default : No
Forced : No

Text #33
ID : 36
Format : UTF-8
Codec ID : S_TEXT/UTF8
Codec ID/Info : UTF-8 Plain Text
Duration : 2 h 4 min
Bit rate : 39 b/s
Frame rate : 0.171 FPS
Count of elements : 1275
Stream size : 35.5 KiB (0%)
Title : 简体
Language : Chinese

Default : No
Forced : No

Text #34
ID : 37
Format : UTF-8
Codec ID : S_TEXT/UTF8
Codec ID/Info : UTF-8 Plain Text
Duration : 2 h 4 min
Bit rate : 40 b/s
Frame rate : 0.171 FPS
Count of elements : 1275
Stream size : 36.6 KiB (0%)
Title : 繁体
Language : Chinese

Default : No
Forced : No

Menu
00:00:00.000 : enart 01
02:04:16.450 : en:Credits

推荐使用qBittorrent、uTorrent、BitComet等下载软件,有条件的推荐115或会员软件下载!

下载地址

游客,如果您要查看本帖隐藏内容请回复




上一篇:锡尔弗顿之围 [简繁中字]/Silverton Siege‎ (2022) 4K高清版本下载
下一篇:婚礼季 [简繁中字] / Wedding Season (2022)4K高清版本下载
回复

使用道具 举报

主题

帖子

0

积分

新手上路

Rank: 1

积分
0
发表于 5 天前 | 显示全部楼层
谢谢楼主
回复

使用道具 举报

您需要登录后才可以回帖 登录 | 立即注册

本版积分规则

精彩图文
Archiver|手机版|TAG|Sitemap|新帖|专题|联系我们:邮箱: 4kjia.com@gmail.com   

4k家园   ©2019