[4K电影] 烽火赤焰万里情 / Reds (1981) 4K高清版本下载

[复制链接]

主题

帖子

0

积分

超级版主

Rank: 8Rank: 8

积分
0
 楼主| 发表于 2023-1-6 10:37:43 | 显示全部楼层 |阅读模式

QQ图片20230106104249_副本.png

◎译  名 烽火赤焰万里情/乱世情天(港)/烽火赤焰万里情(台)/赤色分子
◎片  名 Reds
◎年  代 1981
◎产  地 美国/英国
◎类  别 剧情/爱情/传记/历史
◎语  言 英语/俄语/德语/法语/芬兰语/意大利语
◎上映日期 1981-12-03(美国)
◎IMDb评分 7.3/10 from 23300 users 更新 : 2023-01-03
◎IMDb链接 https://www.imdb.com/title/tt0082979/
◎豆瓣评分 8.0/10 from 1698 users 更新 : 2023-01-06
◎豆瓣链接 https://movie.douban.com/subject/1292891/
◎导  演 沃伦·比蒂 Warren Beatty
◎编  剧 沃伦·比蒂 Warren Beatty / 特雷弗·格里菲思 Trevor Griffiths / 杰瑞米·皮克瑟 Jeremy Pikser
◎主  演 沃伦·比蒂 Warren Beatty
       黛安·基顿 Diane Keaton
       杰克·尼科尔森 Jack Nicholson
       爱德华·赫曼 Edward Herrmann
       玛伦·斯塔普莱顿 Maureen Stapleton
       吉恩·哈克曼 Gene Hackman
       布伦达·柯林 Brenda Currin


◎简  介


   二十年代初期,响往共产主义的美国名记者约翰·雷德千方百计跑到十月革命之后的苏俄体验生活,追求理想的政治国度,并写出了轰动世界的报导文学《震动世界的十天》。然而,他最后对共产主义彻底失望,重回自由世界。                                                                        电影摘要:   第一幕:雷德和露易丝·布莱恩特在波特兰相遇。   第二幕:20世纪10年代在格林威治村的知识分子生活。雷德和露易丝被尤金·奥尼尔和艾玛·高曼等思想家吸引。   第三幕:雷德和露易丝接受俄国革命的影响。   第四幕:雷德试图在美国建立共产党。   第五幕:雷德来到俄国接受布尔什维克的帮助宣传社会主义。1920年雷德去世,年仅32岁。   五个部分充满了乱糟糟的争吵,换句话说,这很难让你对这段历史激起足够的兴趣。在第一部分,观众必须容忍长时间谄媚性的诱导。在这之后,则是雷德和露易丝一段奇怪的爱情:当他们彼此凝视,伴随着革命的高潮和八十年庸俗的音乐,这对恋人的爱情似乎也达到了顶点。第二部分似乎值得一看,事实上,如果影片在这个间断之前结束的话,会比现在这个版本好的多,因为工人运动造成的气氛足以充实这部电影。也许沃伦·比蒂想得太多了,而且多是西方社会对苏联幻觉式的认知,所以才造就了这只嘈杂的万花筒。

◎获奖情况

  第54届奥斯卡金像奖(1982)
  最佳影片(提名)
  最佳导演
  最佳男主角(提名)
  最佳女主角(提名)
  最佳男配角(提名)
  最佳女配角
  最佳原创剧本(提名)
  最佳摄影
  最佳剪辑(提名)
  最佳音响(提名)
  最佳艺术指导(提名)
  最佳服装设计(提名)

Video
ID : 1
Format : HEVC
Format/Info : High Efficiency Video Coding
Format profile : Main 10@L5@High
HDR format : Dolby Vision, Version 1.0, dvhe.05.06, BL+RPU
Codec ID : V_MPEGH/ISO/HEVC
Duration : 3 h 15 min
Bit rate : 24.9 Mb/s
Width : 3 840 pixels
Height : 2 076 pixels
Display aspect ratio : 1.85:1
Frame rate mode : Constant
Frame rate : 23.976 (24000/1001) FPS
Color space : YUV
Chroma subsampling : 4:2:0
Bit depth : 10 bits
Bits/(Pixel*Frame) : 0.130
Stream size : 34.0 GiB (81%)
Default : Yes
Forced : No

Audio #1
ID : 2
ID in the original source medium : 4352 (0x1100)
Format : MLP FBA
Format/Info : Meridian Lossless Packing FBA
Commercial name : Dolby TrueHD
Codec ID : A_TRUEHD
Duration : 3 h 15 min
Bit rate mode : Variable
Bit rate : 2 361 kb/s
Maximum bit rate : 4 176 kb/s
Channel(s) : 6 channels
Channel layout : L R C LFE Ls Rs
Sampling rate : 48.0 kHz
Frame rate : 1 200.000 FPS (40 SPF)
Bit depth : 24 bits
Compression mode : Lossless
Stream size : 3.22 GiB (8%)
Title : TrueHD 5.1
Language : English
Default : Yes
Forced : No
Original source medium : Blu-ray

Audio #2
ID : 3
Format : DTS XLL
Format/Info : Digital Theater Systems
Commercial name : DTS-HD Master Audio
Codec ID : A_DTS
Duration : 3 h 15 min
Bit rate mode : Variable
Bit rate : 2 967 kb/s
Channel(s) : 6 channels
Channel layout : C L R Ls Rs LFE
Sampling rate : 48.0 kHz
Frame rate : 93.750 FPS (512 SPF)
Bit depth : 24 bits
Compression mode : Lossless
Stream size : 4.05 GiB (10%)
Title : DTS-HD MA 5.1
Language : English
Default : No
Forced : No

Audio #3
ID : 4
Format : AC-3
Format/Info : Audio Coding 3
Commercial name : Dolby Digital
Codec ID : A_AC3
Duration : 3 h 15 min
Bit rate mode : Constant
Bit rate : 384 kb/s
Channel(s) : 6 channels
Channel layout : L R C LFE Ls Rs
Sampling rate : 48.0 kHz
Frame rate : 31.250 FPS (1536 SPF)
Compression mode : Lossy
Stream size : 536 MiB (1%)
Title : DD 5.1
Language : English
Service kind : Complete Main
Default : No
Forced : No

Text #1
ID : 5
Format : UTF-8
Codec ID : S_TEXT/UTF8
Codec ID/Info : UTF-8 Plain Text
Duration : 3 h 13 min
Bit rate : 89 b/s
Frame rate : 0.324 FPS
Count of elements : 3750
Stream size : 126 KiB (0%)
Title : English CC
Language : English (US)
Default : Yes
Forced : No

Text #2
ID : 6
Format : UTF-8
Codec ID : S_TEXT/UTF8
Codec ID/Info : UTF-8 Plain Text
Duration : 3 h 13 min
Bit rate : 79 b/s
Frame rate : 0.251 FPS
Count of elements : 2913
Stream size : 112 KiB (0%)
Title : German
Language : German (DE)
Default : No
Forced : No

Text #3
ID : 7
Format : UTF-8
Codec ID : S_TEXT/UTF8
Codec ID/Info : UTF-8 Plain Text
Duration : 3 h 13 min
Bit rate : 78 b/s
Frame rate : 0.252 FPS
Count of elements : 2916
Stream size : 111 KiB (0%)
Title : French European
Language : French (FR)
Default : No
Forced : No

Text #4
ID : 8
Format : UTF-8
Codec ID : S_TEXT/UTF8
Codec ID/Info : UTF-8 Plain Text
Duration : 3 h 13 min
Bit rate : 74 b/s
Frame rate : 0.237 FPS
Count of elements : 2744
Stream size : 106 KiB (0%)
Title : Italian
Language : Italian
Default : No
Forced : No

Text #5
ID : 9
ID in the original source medium : 4608 (0x1200)
Format : PGS
Muxing mode : zlib
Codec ID : S_HDMV/PGS
Codec ID/Info : Picture based subtitle format used on BDs/HD-DVDs
Duration : 3 h 13 min
Bit rate : 51.2 kb/s
Frame rate : 0.515 FPS
Count of elements : 5964
Stream size : 70.7 MiB (0%)
Language : English
Default : No
Forced : No
Original source medium : Blu-ray

Text #6
ID : 10
ID in the original source medium : 4609 (0x1201)
Format : PGS
Muxing mode : zlib
Codec ID : S_HDMV/PGS
Codec ID/Info : Picture based subtitle format used on BDs/HD-DVDs
Duration : 3 h 13 min
Bit rate : 54.9 kb/s
Frame rate : 0.554 FPS
Count of elements : 6424
Stream size : 75.8 MiB (0%)
Title : English SDH
Language : English
Default : No
Forced : No
Original source medium : Blu-ray


推荐使用qBittorrent、uTorrent、BitComet等下载软件,有条件的推荐115或会员软件下载!

下载地址


游客,如果您要查看本帖隐藏内容请回复

游客,如果您要查看本帖隐藏内容请回复

游客,如果您要查看本帖隐藏内容请回复






上一篇:圣诞王子 [简繁中字] / A Christmas Prince (2017)4K高清版本下载
下一篇:穿靴子的猫2 / Puss.in.Boots.The.Last.Wish (2022) 4K高清版本下载
回复

使用道具 举报

0

主题

2

帖子

12

积分

新手上路

Rank: 1

积分
12
发表于 2023-1-6 15:40:55 | 显示全部楼层
谢谢
回复

使用道具 举报

0

主题

1

帖子

6

积分

新手上路

Rank: 1

积分
6
发表于 2023-1-7 04:12:01 | 显示全部楼层
谢谢分享。。。。。。。。。。。。。。。。。
回复

使用道具 举报

0

主题

226

帖子

1016

积分

4K家园VIP

Rank: 9Rank: 9Rank: 9

积分
1016
发表于 2023-1-7 19:31:24 | 显示全部楼层
楼主辛苦了,谢谢楼主,感谢楼主分享,楼主好人一生平安!!!
回复 支持 反对

使用道具 举报

0

主题

1

帖子

6

积分

新手上路

Rank: 1

积分
6
发表于 2023-1-8 01:45:43 来自手机 | 显示全部楼层
666,感谢大佬分享
回复 支持 反对

使用道具 举报

主题

帖子

0

积分

新手上路

Rank: 1

积分
0
发表于 2023-1-8 03:57:06 来自手机 | 显示全部楼层
谢谢
回复

使用道具 举报

您需要登录后才可以回帖 登录 | 立即注册

本版积分规则

精彩图文
Archiver|手机版|TAG|Sitemap|新帖|专题|联系我们:邮箱: 4kjia.com@gmail.com   

4k家园   ©2019