[4K电影] 穿靴子的猫2 / Puss.in.Boots.The.Last.Wish (2022) 4K高清版本下载

[复制链接]

主题

帖子

0

积分

超级版主

Rank: 8Rank: 8

积分
0
 楼主| 发表于 2023-1-6 21:44:57 | 显示全部楼层 |阅读模式
本帖最后由 没完没了 于 2023-1-7 10:53 编辑

QQ图片20230106222001_副本.png

◎译  名 穿靴子的猫2/无敌猫剑侠2/鞋猫剑客2(台)/无敌猫剑侠:8+1条命(港)/穿靴子的猫2:九条命和四十大盗/穿靴子的猫:最后的愿望/Puss in Boots 2: Nine Lives & 40 Thieves
◎片  名 Puss in Boots: The Last Wish
◎年  代 2022
◎产  地 美国
◎类  别 喜剧/爱情/动画/悬疑/歌舞/奇幻/冒险
◎语  言 英语/西班牙语
◎上映日期 2022-12-23(中国大陆)/2022-12-07(法国)/2022-12-21(美国)
◎IMDb评分 7.8/10 from 12089 users 更新 : 2023-01-07
◎IMDb链接 https://www.imdb.com/title/tt3915174/
◎豆瓣评分 8.3/10 from 13651 users 更新 : 2023-01-07
◎豆瓣链接 https://movie.douban.com/subject/25868125/
◎导  演 乔尔·克劳福德 Joel Crawford / 贾努埃尔·梅尔卡多 Januel Mercado
◎编  剧 汤米·斯威德洛 Tommy Swerdlow / 汤姆·惠勒 Tom Wheeler / 保罗·费舍尔 Paul Fisher / 克里斯托弗·梅勒丹德利 Christopher Meledandri
◎主  演 安东尼奥·班德拉斯 Antonio Banderas
       萨尔玛·海耶克 Salma Hayek
       哈维·吉兰 Harvey Guillen
       弗洛伦丝·皮尤 Florence Pugh
       约翰·木兰尼 John Mulaney
       瓦格纳·马拉 Wagner Moura
       雷·温斯顿 Ray Winstone
       萨姆森·卡约 Samson Kayo
       奥利维娅·科尔曼 Olivia Colman
       达明·乔伊·伦道夫 Da'Vine Joy Randolph
       安东尼·门德斯 Anthony Mendez
       科迪·卡梅伦 Cody Cameron
       乔尔·克劳福德 Joel Crawford
       娜塔莉亚·克朗博尔德 Natalia Cronembold
       保罗·费舍尔 Paul Fisher
       贾努埃尔·梅尔卡多 Januel Mercado
       亚提米丝·帕博达尼 Artemis Pebdani
       詹姆斯·雷恩 James Ryan
       贝琪·索达罗 Betsy Sodaro
       康拉德·弗农 Conrad Vernon
       凯莉·艾莉莎·弗拉纳根 Kaley Alyssa Flanagan
       克里斯·米勒 Chris Miller


◎简  介


  时隔11年,臭屁自大又爱卖萌的猫大侠回来了!如今的猫大侠(安东尼奥·班德拉斯 配音),依旧幽默潇洒又不拘小节、数次“花式送命”后,九条命如今只剩一条,于是不得不请求自己的老搭档兼“宿敌”——迷人的软爪妞(萨尔玛·海耶克 配音)来施以援手来恢复自己的九条生命。

◎获奖情况

  第80届金球奖(2023)
  电影类 最佳动画长片(提名)
Video
ID : 1
Format : HEVC
Format/Info : High Efficiency Video Coding
Format profile : Main 10@L5@High
HDR format : Dolby Vision, Version 1.0, dvhe.05.06, BL+RPU
Codec ID : V_MPEGH/ISO/HEVC
Duration : 1 h 42 min
Bit rate : 24.6 Mb/s
Width : 3 840 pixels
Height : 2 160 pixels
Display aspect ratio : 16:9
Frame rate mode : Constant
Frame rate : 23.976 (24000/1001) FPS
Color space : YUV
Chroma subsampling : 4:2:0 (Type 0)
Bit depth : 10 bits
Bits/(Pixel*Frame) : 0.124
Stream size : 17.6 GiB (97%)
Language : English
Default : Yes
Forced : No
Color range : Full

Audio
ID : 2
Format : E-AC-3 JOC
Format/Info : Enhanced AC-3 with Joint Object Coding
Commercial name : Dolby Digital Plus with Dolby Atmos
Codec ID : A_EAC3
Duration : 1 h 42 min
Bit rate mode : Constant
Bit rate : 640 kb/s
Channel(s) : 6 channels
Channel layout : L R C LFE Ls Rs
Sampling rate : 48.0 kHz
Frame rate : 31.250 FPS (1536 SPF)
Compression mode : Lossy
Stream size : 469 MiB (3%)
Language : English
Service kind : Complete Main
Default : Yes
Forced : No
Complexity index : 16
Number of dynamic objects : 15
Bed channel count : 1 channel
Bed channel configuration : LFE

Text #1
ID : 3
Format : UTF-8
Codec ID : S_TEXT/UTF8
Codec ID/Info : UTF-8 Plain Text
Duration : 1 h 40 min
Bit rate : 56 b/s
Frame rate : 0.267 FPS
Count of elements : 1619
Stream size : 41.8 KiB (0%)
Language : English
Default : No
Forced : No

Text #2
ID : 4
Format : UTF-8
Codec ID : S_TEXT/UTF8
Codec ID/Info : UTF-8 Plain Text
Duration : 1 h 42 min
Bit rate : 74 b/s
Frame rate : 0.354 FPS
Count of elements : 2170
Stream size : 56.2 KiB (0%)
Title : SDH
Language : English
Default : No
Forced : No

Text #3
ID : 5
Format : UTF-8
Codec ID : S_TEXT/UTF8
Codec ID/Info : UTF-8 Plain Text
Duration : 1 h 40 min
Bit rate : 56 b/s
Frame rate : 0.250 FPS
Count of elements : 1517
Stream size : 41.9 KiB (0%)
Title : Latin American
Language : Spanish (Latin America)
Default : No
Forced : No

推荐使用qBittorrent、uTorrent、BitComet等下载软件,有条件的推荐115或会员软件下载!

下载地址


游客,如果您要查看本帖隐藏内容请回复

游客,如果您要查看本帖隐藏内容请回复

游客,如果您要查看本帖隐藏内容请回复

游客,如果您要查看本帖隐藏内容请回复

游客,如果您要查看本帖隐藏内容请回复







上一篇:烽火赤焰万里情 / Reds (1981) 4K高清版本下载
下一篇:你好,13岁 [简繁中字] / 13: The Musical (2022) 4K高清版本下载
回复

使用道具 举报

0

主题

1

帖子

6

积分

新手上路

Rank: 1

积分
6
发表于 2023-1-7 17:25:47 | 显示全部楼层
就在等4K版本,谢谢!
回复 支持 反对

使用道具 举报

0

主题

1

帖子

6

积分

新手上路

Rank: 1

积分
6
发表于 2023-1-7 19:17:39 来自手机 | 显示全部楼层
感谢楼主,资源不好找
回复 支持 反对

使用道具 举报

0

主题

2

帖子

18

积分

新手上路

Rank: 1

积分
18
发表于 2023-1-7 21:19:16 | 显示全部楼层
哈哈哈
回复

使用道具 举报

0

主题

1

帖子

6

积分

新手上路

Rank: 1

积分
6
发表于 2023-1-8 00:43:25 来自手机 | 显示全部楼层
感谢楼主
回复

使用道具 举报

主题

帖子

0

积分

新手上路

Rank: 1

积分
0
发表于 2023-1-10 22:30:22 来自手机 | 显示全部楼层
感谢楼主
回复

使用道具 举报

0

主题

1

帖子

6

积分

新手上路

Rank: 1

积分
6
发表于 2023-1-12 06:16:20 | 显示全部楼层

就在等4K版本,谢谢!
回复 支持 反对

使用道具 举报

0

主题

1

帖子

6

积分

新手上路

Rank: 1

积分
6
发表于 2023-1-13 13:35:03 | 显示全部楼层
就在等4K版本,谢谢!就在等4K版本,谢谢!
回复 支持 反对

使用道具 举报

0

主题

1

帖子

6

积分

新手上路

Rank: 1

积分
6
发表于 2023-1-13 20:44:17 | 显示全部楼层
4kyyds6666
回复 支持 反对

使用道具 举报

0

主题

1

帖子

6

积分

新手上路

Rank: 1

积分
6
发表于 2023-1-14 11:30:21 | 显示全部楼层
在其他网站找了一些这个的资源,但都没有速度,希望这个可以。
回复 支持 反对

使用道具 举报

您需要登录后才可以回帖 登录 | 立即注册

本版积分规则

精彩图文
Archiver|手机版|TAG|Sitemap|新帖|专题|联系我们:邮箱: 4kjia.com@gmail.com   

4k家园   ©2019