[4K电影] 你好,13岁 [简繁中字] / 13: The Musical (2022) 4K高清版本下载

[复制链接]

主题

帖子

0

积分

超级版主

Rank: 8Rank: 8

积分
0
 楼主| 发表于 2023-1-6 21:52:26 | 显示全部楼层 |阅读模式
本帖最后由 没完没了 于 2023-1-7 10:49 编辑

QQ图片20230106222043_副本.png
◎译  名 13/你好,13岁
◎片  名 13: The Musical
◎年  代 2022
◎产  地 美国
◎类  别 剧情/喜剧/歌舞
◎语  言 英语
◎上映日期 2022-08-12(美国网络)
◎IMDb评分 7.9/10 from 58871 users 更新 : 2023-01-03
◎IMDb链接 https://www.imdb.com/title/tt3975918/
◎豆瓣评分 5.7/10 from 114 users 更新 : 2023-01-06
◎豆瓣链接 https://movie.douban.com/subject/35472770/
◎导  演 塔拉·戴维斯 Tamra Davis
◎编  剧 Jason Robert Brown Jason Robert Brown / 伯特·V·罗耶尔 Bert V. Royal
◎主  演 黛博拉·梅辛 Debra Messing
       乔希·佩克 Josh Peck
       雷亚·普尔曼 Rhea Perlman
       皮特·赫尔曼 Peter Hermann
       JD·麦克拉里 JD McCrary


◎简  介


  《威尔和格蕾丝》女星黛博拉·梅辛加盟出演改编自百老汇音乐剧《13》的Netlfix新片。塔拉·戴维斯(《真爱不死》)执导,卡司包括伊莱·戈登、加布里埃拉·乌尔、JD·麦克拉里、弗兰克·麦克内利斯等。该片讲述12岁的埃文·戈德曼的故事。他从纽约市搬到印第安纳州的小镇,在那里,他努力解决父母离婚的问题,为即将到来的成人礼做准备,并在新学校复杂的社交圈中摸索。梅辛将扮演埃文·戈德曼的母亲。
Video
ID : 1
Format : HEVC
Format/Info : High Efficiency Video Coding
Format profile : Main 10@L5@Main
HDR format : Dolby Vision, Version 1.0, dvhe.08.06, BL+RPU, HDR10 compatible / SMPTE ST 2086, HDR10 compatible
Codec ID : V_MPEGH/ISO/HEVC
Duration : 1 h 31 min
Bit rate : 15.3 Mb/s
Width : 3 840 pixels
Height : 2 160 pixels
Display aspect ratio : 16:9
Frame rate mode : Constant
Frame rate : 24.000 FPS
Color space : YUV
Chroma subsampling : 4:2:0 (Type 2)
Bit depth : 10 bits
Bits/(Pixel*Frame) : 0.077
Stream size : 9.80 GiB (95%)
Default : Yes
Forced : No
Color range : Limited
Color primaries : BT.2020
Transfer characteristics : PQ
Matrix coefficients : BT.2020 non-constant
Mastering display color primaries : Display P3
Mastering display luminance : min: 0.0001 cd/m2, max: 1000 cd/m2
Maximum Content Light Level : 756 cd/m2
Maximum Frame-Average Light Level : 528 cd/m2

Audio
ID : 2
Format : E-AC-3 JOC
Format/Info : Enhanced AC-3 with Joint Object Coding
Commercial name : Dolby Digital Plus with Dolby Atmos
Codec ID : A_EAC3
Duration : 1 h 34 min
Bit rate mode : Constant
Bit rate : 768 kb/s
Channel(s) : 6 channels
Channel layout : L R C LFE Ls Rs
Sampling rate : 48.0 kHz
Frame rate : 31.250 FPS (1536 SPF)
Compression mode : Lossy
Stream size : 522 MiB (5%)
Language : English
Service kind : Complete Main
Default : Yes
Forced : No
Complexity index : 16
Number of dynamic objects : 15
Bed channel count : 1 channel
Bed channel configuration : LFE

Text #1
ID : 3
Format : UTF-8
Codec ID : S_TEXT/UTF8
Codec ID/Info : UTF-8 Plain Text
Duration : 1 h 30 min
Bit rate : 92 b/s
Frame rate : 0.271 FPS
Count of elements : 1480
Stream size : 61.4 KiB (0%)
Language : English
Default : No
Forced : No

Text #2
ID : 4
Format : UTF-8
Codec ID : S_TEXT/UTF8
Codec ID/Info : UTF-8 Plain Text
Duration : 1 h 30 min
Bit rate : 97 b/s
Frame rate : 0.286 FPS
Count of elements : 1560
Stream size : 64.7 KiB (0%)
Title : SDH
Language : English
Default : No
Forced : No

Text #3
ID : 5
Format : UTF-8
Codec ID : S_TEXT/UTF8
Codec ID/Info : UTF-8 Plain Text
Duration : 1 h 26 min
Bit rate : 113 b/s
Frame rate : 0.264 FPS
Count of elements : 1363
Stream size : 71.7 KiB (0%)
Language : Arabic
Default : No
Forced : No

Text #4
ID : 6
Format : UTF-8
Codec ID : S_TEXT/UTF8
Codec ID/Info : UTF-8 Plain Text
Duration : 1 h 31 min
Bit rate : 67 b/s
Frame rate : 0.246 FPS
Count of elements : 1346
Stream size : 45.2 KiB (0%)
Language : Catalan
Default : No
Forced : No

Text #5
ID : 7
Format : UTF-8
Codec ID : S_TEXT/UTF8
Codec ID/Info : UTF-8 Plain Text
Duration : 1 h 31 min
Bit rate : 79 b/s
Frame rate : 0.261 FPS
Count of elements : 1428
Stream size : 52.9 KiB (0%)
Language : Czech
Default : No
Forced : No

Text #6
ID : 8
Format : UTF-8
Codec ID : S_TEXT/UTF8
Codec ID/Info : UTF-8 Plain Text
Duration : 1 h 31 min
Bit rate : 68 b/s
Frame rate : 0.244 FPS
Count of elements : 1335
Stream size : 45.6 KiB (0%)
Language : Danish
Default : No
Forced : No

Text #7
ID : 9
Format : UTF-8
Codec ID : S_TEXT/UTF8
Codec ID/Info : UTF-8 Plain Text
Duration : 1 h 31 min
Bit rate : 75 b/s
Frame rate : 0.243 FPS
Count of elements : 1329
Stream size : 50.7 KiB (0%)
Language : German
Default : No
Forced : No

Text #8
ID : 10
Format : UTF-8
Codec ID : S_TEXT/UTF8
Codec ID/Info : UTF-8 Plain Text
Duration : 1 h 26 min
Bit rate : 127 b/s
Frame rate : 0.263 FPS
Count of elements : 1363
Stream size : 80.7 KiB (0%)
Language : Greek
Default : No
Forced : No

Text #9
ID : 11
Format : UTF-8
Codec ID : S_TEXT/UTF8
Codec ID/Info : UTF-8 Plain Text
Duration : 1 h 31 min
Bit rate : 71 b/s
Frame rate : 0.247 FPS
Count of elements : 1353
Stream size : 47.8 KiB (0%)
Title : Latin American
Language : Spanish (Latin America)
Default : No
Forced : No

Text #10
ID : 12
Format : UTF-8
Codec ID : S_TEXT/UTF8
Codec ID/Info : UTF-8 Plain Text
Duration : 1 h 31 min
Bit rate : 91 b/s
Frame rate : 0.277 FPS
Count of elements : 1516
Stream size : 61.2 KiB (0%)
Title : Latin American (SDH)
Language : Spanish (Latin America)
Default : No
Forced : No

Text #11
ID : 13
Format : UTF-8
Codec ID : S_TEXT/UTF8
Codec ID/Info : UTF-8 Plain Text
Duration : 1 h 31 min
Bit rate : 78 b/s
Frame rate : 0.260 FPS
Count of elements : 1424
Stream size : 52.2 KiB (0%)
Title : European
Language : Spanish (ES)
Default : No
Forced : No

Text #12
ID : 14
Format : UTF-8
Codec ID : S_TEXT/UTF8
Codec ID/Info : UTF-8 Plain Text
Duration : 1 h 31 min
Bit rate : 76 b/s
Frame rate : 0.263 FPS
Count of elements : 1438
Stream size : 50.9 KiB (0%)
Language : Basque
Default : No
Forced : No

Text #13
ID : 15
Format : UTF-8
Codec ID : S_TEXT/UTF8
Codec ID/Info : UTF-8 Plain Text
Duration : 1 h 31 min
Bit rate : 64 b/s
Frame rate : 0.213 FPS
Count of elements : 1164
Stream size : 42.8 KiB (0%)
Language : Finnish
Default : No
Forced : No

Text #14
ID : 16
Format : UTF-8
Codec ID : S_TEXT/UTF8
Codec ID/Info : UTF-8 Plain Text
Duration : 1 h 31 min
Bit rate : 40 b/s
Frame rate : 0.163 FPS
Count of elements : 893
Stream size : 27.0 KiB (0%)
Language : fil
Default : No
Forced : No

Text #15
ID : 17
Format : UTF-8
Codec ID : S_TEXT/UTF8
Codec ID/Info : UTF-8 Plain Text
Duration : 1 h 31 min
Bit rate : 75 b/s
Frame rate : 0.260 FPS
Count of elements : 1423
Stream size : 50.3 KiB (0%)
Language : French
Default : No
Forced : No

Text #16
ID : 18
Format : UTF-8
Codec ID : S_TEXT/UTF8
Codec ID/Info : UTF-8 Plain Text
Duration : 1 h 31 min
Bit rate : 72 b/s
Frame rate : 0.245 FPS
Count of elements : 1340
Stream size : 48.4 KiB (0%)
Language : Galician
Default : No
Forced : No

Text #17
ID : 19
Format : UTF-8
Codec ID : S_TEXT/UTF8
Codec ID/Info : UTF-8 Plain Text
Duration : 1 h 26 min
Bit rate : 115 b/s
Frame rate : 0.263 FPS
Count of elements : 1361
Stream size : 73.2 KiB (0%)
Language : Hebrew
Default : No
Forced : No

Text #18
ID : 20
Format : UTF-8
Codec ID : S_TEXT/UTF8
Codec ID/Info : UTF-8 Plain Text
Duration : 1 h 31 min
Bit rate : 70 b/s
Frame rate : 0.259 FPS
Count of elements : 1417
Stream size : 47.1 KiB (0%)
Language : Croatian
Default : No
Forced : No

Text #19
ID : 21
Format : UTF-8
Codec ID : S_TEXT/UTF8
Codec ID/Info : UTF-8 Plain Text
Duration : 1 h 31 min
Bit rate : 75 b/s
Frame rate : 0.259 FPS
Count of elements : 1415
Stream size : 50.6 KiB (0%)
Language : Hungarian
Default : No
Forced : No

Text #20
ID : 22
Format : UTF-8
Codec ID : S_TEXT/UTF8
Codec ID/Info : UTF-8 Plain Text
Duration : 1 h 31 min
Bit rate : 71 b/s
Frame rate : 0.253 FPS
Count of elements : 1386
Stream size : 47.6 KiB (0%)
Language : Indonesian
Default : No
Forced : No

Text #21
ID : 23
Format : UTF-8
Codec ID : S_TEXT/UTF8
Codec ID/Info : UTF-8 Plain Text
Duration : 1 h 31 min
Bit rate : 71 b/s
Frame rate : 0.246 FPS
Count of elements : 1346
Stream size : 47.6 KiB (0%)
Language : Italian
Default : No
Forced : No

Text #22
ID : 24
Format : UTF-8
Codec ID : S_TEXT/UTF8
Codec ID/Info : UTF-8 Plain Text
Duration : 1 h 26 min
Bit rate : 72 b/s
Frame rate : 0.274 FPS
Count of elements : 1418
Stream size : 45.6 KiB (0%)
Language : Japanese
Default : No
Forced : No

Text #23
ID : 25
Format : UTF-8
Codec ID : S_TEXT/UTF8
Codec ID/Info : UTF-8 Plain Text
Duration : 1 h 31 min
Bit rate : 84 b/s
Frame rate : 0.279 FPS
Count of elements : 1527
Stream size : 56.7 KiB (0%)
Language : Korean
Default : No
Forced : No

Text #24
ID : 26
Format : UTF-8
Codec ID : S_TEXT/UTF8
Codec ID/Info : UTF-8 Plain Text
Duration : 1 h 26 min
Bit rate : 74 b/s
Frame rate : 0.263 FPS
Count of elements : 1362
Stream size : 47.2 KiB (0%)
Language : Malay
Default : No
Forced : No

Text #25
ID : 27
Format : UTF-8
Codec ID : S_TEXT/UTF8
Codec ID/Info : UTF-8 Plain Text
Duration : 1 h 31 min
Bit rate : 69 b/s
Frame rate : 0.232 FPS
Count of elements : 1266
Stream size : 46.1 KiB (0%)
Language : Norwegian Bokmal
Default : No
Forced : No

Text #26
ID : 28
Format : UTF-8
Codec ID : S_TEXT/UTF8
Codec ID/Info : UTF-8 Plain Text
Duration : 1 h 31 min
Bit rate : 76 b/s
Frame rate : 0.255 FPS
Count of elements : 1395
Stream size : 50.9 KiB (0%)
Language : Dutch
Default : No
Forced : No

Text #27
ID : 29
Format : UTF-8
Codec ID : S_TEXT/UTF8
Codec ID/Info : UTF-8 Plain Text
Duration : 1 h 31 min
Bit rate : 70 b/s
Frame rate : 0.240 FPS
Count of elements : 1312
Stream size : 47.3 KiB (0%)
Language : Polish
Default : No
Forced : No

Text #28
ID : 30
Format : UTF-8
Codec ID : S_TEXT/UTF8
Codec ID/Info : UTF-8 Plain Text
Duration : 1 h 31 min
Bit rate : 78 b/s
Frame rate : 0.255 FPS
Count of elements : 1397
Stream size : 52.4 KiB (0%)
Title : Brazilian
Language : Portuguese (BR)
Default : No
Forced : No

Text #29
ID : 31
Format : UTF-8
Codec ID : S_TEXT/UTF8
Codec ID/Info : UTF-8 Plain Text
Duration : 1 h 31 min
Bit rate : 53 b/s
Frame rate : 0.217 FPS
Count of elements : 1186
Stream size : 35.5 KiB (0%)
Title : Brazilian (SDH)
Language : Portuguese (BR)
Default : No
Forced : No

Text #30
ID : 32
Format : UTF-8
Codec ID : S_TEXT/UTF8
Codec ID/Info : UTF-8 Plain Text
Duration : 1 h 31 min
Bit rate : 72 b/s
Frame rate : 0.241 FPS
Count of elements : 1319
Stream size : 48.4 KiB (0%)
Title : European
Language : Portuguese (PT)
Default : No
Forced : No

Text #31
ID : 33
Format : UTF-8
Codec ID : S_TEXT/UTF8
Codec ID/Info : UTF-8 Plain Text
Duration : 1 h 31 min
Bit rate : 86 b/s
Frame rate : 0.260 FPS
Count of elements : 1423
Stream size : 57.5 KiB (0%)
Language : Romanian
Default : No
Forced : No

Text #32
ID : 34
Format : UTF-8
Codec ID : S_TEXT/UTF8
Codec ID/Info : UTF-8 Plain Text
Duration : 1 h 31 min
Bit rate : 110 b/s
Frame rate : 0.246 FPS
Count of elements : 1346
Stream size : 73.8 KiB (0%)
Language : Russian
Default : No
Forced : No

Text #33
ID : 35
Format : UTF-8
Codec ID : S_TEXT/UTF8
Codec ID/Info : UTF-8 Plain Text
Duration : 1 h 26 min
Bit rate : 72 b/s
Frame rate : 0.245 FPS
Count of elements : 1269
Stream size : 45.7 KiB (0%)
Language : Swedish
Default : No
Forced : No

Text #34
ID : 36
Format : UTF-8
Codec ID : S_TEXT/UTF8
Codec ID/Info : UTF-8 Plain Text
Duration : 1 h 26 min
Bit rate : 183 b/s
Frame rate : 0.264 FPS
Count of elements : 1367
Stream size : 116 KiB (0%)
Language : Thai
Default : No
Forced : No

Text #35
ID : 37
Format : UTF-8
Codec ID : S_TEXT/UTF8
Codec ID/Info : UTF-8 Plain Text
Duration : 1 h 26 min
Bit rate : 74 b/s
Frame rate : 0.262 FPS
Count of elements : 1358
Stream size : 46.8 KiB (0%)
Language : Turkish
Default : No
Forced : No

Text #36
ID : 38
Format : UTF-8
Codec ID : S_TEXT/UTF8
Codec ID/Info : UTF-8 Plain Text
Duration : 1 h 26 min
Bit rate : 119 b/s
Frame rate : 0.263 FPS
Count of elements : 1359
Stream size : 75.8 KiB (0%)
Language : Ukrainian
Default : No
Forced : No

Text #37
ID : 39
Format : UTF-8
Codec ID : S_TEXT/UTF8
Codec ID/Info : UTF-8 Plain Text
Duration : 1 h 31 min
Bit rate : 109 b/s
Frame rate : 0.260 FPS
Count of elements : 1422
Stream size : 73.0 KiB (0%)
Language : Vietnamese
Default : No
Forced : No

Text #38
ID : 40
Format : UTF-8
Codec ID : S_TEXT/UTF8
Codec ID/Info : UTF-8 Plain Text
Duration : 1 h 31 min
Bit rate : 80 b/s
Frame rate : 0.266 FPS
Count of elements : 1456
Stream size : 53.7 KiB (0%)
Title : 简体
Language : Chinese (Simplied)

Default : No
Forced : No

Text #39
ID : 41
Format : UTF-8
Codec ID : S_TEXT/UTF8
Codec ID/Info : UTF-8 Plain Text
Duration : 1 h 31 min
Bit rate : 72 b/s
Frame rate : 0.264 FPS
Count of elements : 1443
Stream size : 48.6 KiB (0%)
Title : 繁体
Language : Chinese (Traditional)

Default : No
Forced : No

Menu
00:00:00.000 : enart 01
01:26:20.450 : en:Credits

推荐使用qBittorrent、uTorrent、BitComet等下载软件,有条件的推荐115或会员软件下载!

下载地址

游客,如果您要查看本帖隐藏内容请回复





上一篇:穿靴子的猫2 / Puss.in.Boots.The.Last.Wish (2022) 4K高清版本下载
下一篇:伊尼舍林的报丧女妖/The Banshees of Inisherin(2022) 4K高清版本下载
回复

使用道具 举报

主题

帖子

0

积分

新手上路

Rank: 1

积分
0
发表于 2023-1-7 10:48:32 | 显示全部楼层
开心开心
回复

使用道具 举报

0

主题

225

帖子

1010

积分

4K家园VIP

Rank: 9Rank: 9Rank: 9

积分
1010
发表于 2023-1-7 18:52:00 | 显示全部楼层
让 江小白 来看看帖子里藏了啥好东西~~~
回复 支持 反对

使用道具 举报

0

主题

2

帖子

9

积分

新手上路

Rank: 1

积分
9
发表于 2023-1-7 20:01:49 | 显示全部楼层
为什么这个电影排名第一
回复 支持 反对

使用道具 举报

0

主题

1

帖子

6

积分

新手上路

Rank: 1

积分
6
发表于 2023-1-7 22:49:19 | 显示全部楼层
123123123123
回复 支持 反对

使用道具 举报

主题

帖子

0

积分

新手上路

Rank: 1

积分
0
发表于 2023-1-8 03:57:20 来自手机 | 显示全部楼层
谢谢
回复

使用道具 举报

您需要登录后才可以回帖 登录 | 立即注册

本版积分规则

精彩图文
Archiver|手机版|TAG|Sitemap|新帖|专题|联系我们:邮箱: 4kjia.com@gmail.com   

4k家园   ©2019