[4K电影] 伊尼舍林的报丧女妖/The Banshees of Inisherin(2022) 4K高清版本下载

[复制链接]

主题

帖子

0

积分

超级版主

Rank: 8Rank: 8

积分
0
 楼主| 发表于 2023-1-6 22:05:36 | 显示全部楼层 |阅读模式
本帖最后由 没完没了 于 2023-1-7 10:46 编辑

QQ图片20230106222129_副本.png

◎译  名 伊尼舍林的报丧女妖/伊尼舍林的女妖(台)/伊尼希尔的女妖/伊尼希尔岛的女妖/伊尼希尔岛的报丧女妖/The Banshees of Inisheer
◎片  名 The Banshees of Inisherin
◎年  代 2022
◎产  地 爱尔兰/英国/美国
◎类  别 剧情/喜剧
◎语  言 英语
◎上映日期 2022-09-05(威尼斯电影节)/2022-10-21(美国)
◎IMDb评分 7.9/10 from 58871 users 更新 : 2023-01-03
◎IMDb链接 https://www.imdb.com/title/tt11813216/
◎豆瓣评分 7.8/10 from 31904 users 更新 : 2023-01-06
◎豆瓣链接 https://movie.douban.com/subject/34969348/
◎导  演 马丁·麦克唐纳 Martin McDonagh
◎编  剧 马丁·麦克唐纳 Martin McDonagh
◎主  演 科林·法瑞尔 Colin Farrell
       布莱丹·格里森 Brendan Gleeson
       凯瑞·康顿 Kerry Condon
       巴里·基奥恩 Barry Keoghan
       盖瑞·莱登 Gary Lydon
       帕特·绍特 Pat Shortt
       希拉·弗里顿 Sheila Flitton
       布里·尼·内奇廷 Bríd Ní Neachtain
       乔·肯尼 Jon Kenny
       艾伦·莫纳汉 Aaron Monaghan
       大卫·皮尔斯 David Pearse


◎简  介


  柯林·法瑞尔、布兰登·格里森再度合作,饰演一对爱尔兰伊尼舍林海滨小岛的好兄弟,却面临绝交危机,这回断的不只友情,还有手指!马丁·麦克唐纳再展拿手黑色讽刺喜剧,当友谊走到尽头的心碎和伤害推到极端,所产生的愤怒与报复,竟然比爱情还失控,时空背景与爱尔兰内战遥相对照,更显其恶趣味。

◎获奖情况

  第79届威尼斯电影节(2022)
  主竞赛单元 金狮奖 (提名)
  金奥赛拉奖 最佳编剧
  沃尔皮杯 最佳男演员

  第80届金球奖(2023)
  电影类 最佳音乐/喜剧片(提名)
  电影类 最佳导演(提名)
  电影类 音乐/喜剧片最佳男主角(提名)
  电影类 最佳男配角(提名)
  电影类 最佳女配角(提名)
  电影类 最佳编剧(提名)
  电影类 最佳原创配乐(提名)

  第32届哥谭独立电影奖(2022)
  最佳国际影片(提名)
Video
ID : 1
Format : HEVC
Format/Info : High Efficiency Video Coding
Format profile : Main 10@L5@High
HDR format : Dolby Vision, Version 1.0, dvhe.08.06, BL+RPU, HDR10 compatible / SMPTE ST 2086, HDR10 compatible
Codec ID : V_MPEGH/ISO/HEVC
Duration : 1 h 53 min
Bit rate : 24.2 Mb/s
Width : 3 840 pixels
Height : 2 160 pixels
Display aspect ratio : 16:9
Frame rate mode : Constant
Frame rate : 23.976 (24000/1001) FPS
Color space : YUV
Chroma subsampling : 4:2:0 (Type 2)
Bit depth : 10 bits
Bits/(Pixel*Frame) : 0.122
Stream size : 19.3 GiB (85%)
Title : MPEG-H HEVC @ 24218 kbps (HDR10 & DV P8)
Default : Yes
Forced : No
Color range : Limited
Color primaries : BT.2020
Transfer characteristics : PQ
Matrix coefficients : BT.2020 non-constant
Mastering display color primaries : Display P3
Mastering display luminance : min: 0.0001 cd/m2, max: 1000 cd/m2
Maximum Content Light Level : 501 cd/m2
Maximum Frame-Average Light Level : 110 cd/m2

Audio #1
ID : 2
Format : DTS XLL
Format/Info : Digital Theater Systems
Commercial name : DTS-HD Master Audio
Codec ID : A_DTS
Duration : 1 h 53 min
Bit rate mode : Variable
Bit rate : 3 606 kb/s
Channel(s) : 6 channels
Channel layout : C L R Ls Rs LFE
Sampling rate : 48.0 kHz
Frame rate : 93.750 FPS (512 SPF)
Bit depth : 24 bits
Compression mode : Lossless
Stream size : 2.87 GiB (13%)
Title : DTS-HD MA 5.1 @ 3606 kbps / 24-bit
Language : English
Default : Yes
Forced : No

Audio #2
ID : 3
Format : E-AC-3
Format/Info : Enhanced AC-3
Commercial name : Dolby Digital Plus
Codec ID : A_EAC3
Duration : 1 h 53 min
Bit rate mode : Constant
Bit rate : 640 kb/s
Channel(s) : 6 channels
Channel layout : L R C LFE Ls Rs
Sampling rate : 48.0 kHz
Frame rate : 31.250 FPS (1536 SPF)
Compression mode : Lossy
Delay relative to video : 12 ms
Stream size : 521 MiB (2%)
Title : Dolby Digital Plus 5.1 @ 640 kbps
Language : English
Service kind : Complete Main
Default : No
Forced : No

Text #1
ID : 4
Format : UTF-8
Codec ID : S_TEXT/UTF8
Codec ID/Info : UTF-8 Plain Text
Duration : 1 h 44 min
Bit rate : 51 b/s
Frame rate : 0.196 FPS
Count of elements : 1233
Stream size : 39.3 KiB (0%)
Title : English
Language : English
Default : No
Forced : No

Text #2
ID : 5
Format : UTF-8
Codec ID : S_TEXT/UTF8
Codec ID/Info : UTF-8 Plain Text
Duration : 1 h 48 min
Bit rate : 45 b/s
Frame rate : 0.185 FPS
Count of elements : 1196
Stream size : 36.1 KiB (0%)
Title : Spanish [Latin American]
Language : Spanish (Latin America)
Default : No
Forced : No

Text #3
ID : 6
Format : UTF-8
Codec ID : S_TEXT/UTF8
Codec ID/Info : UTF-8 Plain Text
Duration : 1 h 51 min
Bit rate : 44 b/s
Frame rate : 0.169 FPS
Count of elements : 1134
Stream size : 36.5 KiB (0%)
Title : Romanian
Language : Romanian
Default : No
Forced : No

Menu
00:00:00.000 : Chapter 01
00:05:01.510 : Chapter 02
00:10:50.859 : Chapter 03
00:17:25.878 : Chapter 04
00:19:42.014 : Chapter 05
00:25:51.633 : Chapter 06
00:29:42.948 : Chapter 07
00:33:21.750 : Chapter 08
00:36:56.756 : Chapter 09
00:39:54.475 : Chapter 10
00:45:43.366 : Chapter 11
00:53:22.658 : Chapter 12
00:59:10.088 : Chapter 13
01:03:36.104 : Chapter 14
01:07:40.265 : Chapter 15
01:12:10.910 : Chapter 16
01:14:56.117 : Chapter 17
01:19:59.253 : Chapter 18
01:23:44.144 : Chapter 19
01:34:26.703 : Chapter 20
01:36:50.263 : Chapter 21
01:43:49.432 : Chapter 22
01:47:55.260 : Chapter 23

推荐使用qBittorrent、uTorrent、BitComet等下载软件,有条件的推荐115或会员软件下载!

下载地址

游客,如果您要查看本帖隐藏内容请回复





上一篇:你好,13岁 [简繁中字] / 13: The Musical (2022) 4K高清版本下载
下一篇:血光假期 [简繁中字] / The Weekend Away (2022) 4K高清版本下载
回复

使用道具 举报

0

主题

1

帖子

6

积分

新手上路

Rank: 1

积分
6
发表于 2023-1-7 19:51:06 | 显示全部楼层
谢谢!
回复

使用道具 举报

0

主题

14

帖子

63

积分

新手上路

Rank: 1

积分
63
发表于 2023-1-10 22:26:31 | 显示全部楼层
感谢分享
回复

使用道具 举报

您需要登录后才可以回帖 登录 | 立即注册

本版积分规则

精彩图文
Archiver|手机版|TAG|Sitemap|新帖|专题|联系我们:邮箱: 4kjia.com@gmail.com   

4k家园   ©2019