[4K电影] 宛如天堂 [简繁中字] / Just Like Heaven (2005) 4K高清版本下载

[复制链接]

主题

帖子

0

积分

超级版主

Rank: 8Rank: 8

积分
0
 楼主| 发表于 2023-1-8 10:10:15 | 显示全部楼层 |阅读模式
本帖最后由 最爱4K哟 于 2023-1-8 10:53 编辑

QQ图片20230108105524_副本.png

◎译  名 宛如天堂/出窍情人/天国可人儿
◎片  名 Just Like Heaven
◎年  代 2005
◎产  地 美国
◎类  别 喜剧/爱情/奇幻
◎语  言 英语/汉语普通话
◎上映日期 2005-09-16(美国)
◎IMDb评分 6.7/10 from 111921 users 更新 : 2023-01-04
◎IMDb链接 https://www.imdb.com/title/tt0425123/
◎豆瓣评分 7.2/10 from 15782 users 更新 : 2023-01-08
◎豆瓣链接 https://movie.douban.com/subject/1421976/
◎导  演 马克·沃特斯 Mark Waters
◎编  剧 彼得·托兰 Peter Tolan / 莱斯利·迪克逊 Leslie Dixon / 马克·李维 Marc Levy
◎主  演 瑞茜·威瑟斯彭 Reese Witherspoon
       马克·鲁弗洛 Mark Ruffalo
       唐纳尔·罗格 Donal Logue
       迪娜·沃特斯 Dina Waters
       本·申克曼 Ben Shenkman
       乔恩·海德 Jon Heder
       伊万娜·米利塞维奇 Ivana Mili?evi?
       卡罗琳·阿隆 Caroline Aaron
       赵家玲 Rosalind Chao
       罗恩·坎纳达 Ron Canada
       威利·加森 Willie Garson
       舒莉·考恩 Shulie Cowen
       比利·贝克 Billy Beck
       克里斯蒂安·克鲁兹 Cristian Cruz
       凯萨琳·塔柏 Catherine Taber
       凯瑞斯·多西 Kerris Dorsey
       艾莉西亚·沙菲尔 Alyssa Shafer
       保罗·卡塞尔 Paul Cassell
       雷蒙德·奥康纳 Raymond O'Connor
       宋静秀 Lucille Soong
       乔尔·麦金农·米勒 Joel McKinnon Miller
       罗娜·斯科特 Lorna Scott
       杰夫·马库斯 Jeff Marcus
       肯·竹本 Ken Takemoto
       雅各布·钱伯斯 Jacob Chambers
       李伯恩 Lee Burns
       阿米塔·巴拉 Amita Balla
       提姆·康纳利 Tim Connolly
       肯·克拉克 Ken Clark
       迈克尔·朗斯特雷斯 Michael Longstreth
       珍妮·克里斯蒂娜·马里亚尼 Janean Christine Mariani
       詹姆斯·D·韦斯顿二世 James D. Weston II
       提姆·席特尔兹 Tim Sitarz


◎简  介


  单身男子大卫(马克·鲁弗洛 Mark Ruffalo饰)为了忘掉伤心事,决定出租自己的公寓。怪事开始发生:一个叫伊丽莎白(瑞茜·威瑟斯彭 Reese Witherspoon饰)的姑娘闯入了大卫的生活,声称这是她的房子。
  伊丽莎白似乎拥有超乎凡人的能力,她能随时出现在各个处所,纠缠大卫逼他搬走。然而,她却不知道这背后隐藏着一个残酷的事实——其实伊丽莎白只是一具鬼魂。她生前是一个工作狂,在一场车祸中遇难。大卫请来驱鬼人,伊丽莎白渐渐知晓自己的身份。在这个过程中,大卫和伊丽莎白之间产生了人鬼之恋,伊丽莎白生前和大卫一段错过的缘分,伴随着这段无果的恋情显得倍加唏嘘。
Video
ID : 1
Format : HEVC
Format/Info : High Efficiency Video Coding
Format profile : Main 10@L5@High
HDR format : SMPTE ST 2086, HDR10 compatible
Codec ID : V_MPEGH/ISO/HEVC
Duration : 1 h 34 min
Bit rate : 13.6 Mb/s
Width : 3 840 pixels
Height : 2 160 pixels
Display aspect ratio : 16:9
Frame rate mode : Constant
Frame rate : 23.976 (24000/1001) FPS
Color space : YUV
Chroma subsampling : 4:2:0
Bit depth : 10 bits
Bits/(Pixel*Frame) : 0.068
Stream size : 8.97 GiB (95%)
Default : Yes
Forced : No
Color range : Limited
Color primaries : BT.2020
Transfer characteristics : PQ
Matrix coefficients : BT.2020 non-constant
Mastering display color primaries : BT.2020
Mastering display luminance : min: 0.0001 cd/m2, max: 1000 cd/m2
Maximum Content Light Level : 1000 cd/m2
Maximum Frame-Average Light Level : 256 cd/m2

Audio
ID : 2
Format : E-AC-3
Format/Info : Enhanced AC-3
Commercial name : Dolby Digital Plus
Codec ID : A_EAC3
Duration : 1 h 36 min
Bit rate mode : Constant
Bit rate : 640 kb/s
Channel(s) : 6 channels
Channel layout : L R C LFE Ls Rs
Sampling rate : 48.0 kHz
Frame rate : 31.250 FPS (1536 SPF)
Compression mode : Lossy
Delay relative to video : 1 s 900 ms
Stream size : 440 MiB (5%)
Title : English
Language : English
Service kind : Complete Main
Default : No
Forced : No

Text #1
ID : 3
Format : UTF-8
Codec ID : S_TEXT/UTF8
Codec ID/Info : UTF-8 Plain Text
Duration : 1 h 34 min
Bit rate : 82 b/s
Frame rate : 0.306 FPS
Count of elements : 1734
Stream size : 57.3 KiB (0%)
Title : English
Language : English (US)
Default : Yes
Forced : No

Text #2
ID : 4
Format : UTF-8
Codec ID : S_TEXT/UTF8
Codec ID/Info : UTF-8 Plain Text
Duration : 1 h 29 min
Bit rate : 104 b/s
Frame rate : 0.281 FPS
Count of elements : 1510
Stream size : 68.2 KiB (0%)
Title : Arabic
Language : Arabic (001)
Default : No
Forced : No

Text #3
ID : 5
Format : UTF-8
Codec ID : S_TEXT/UTF8
Codec ID/Info : UTF-8 Plain Text
Duration : 1 h 29 min
Bit rate : 67 b/s
Frame rate : 0.273 FPS
Count of elements : 1463
Stream size : 44.1 KiB (0%)
Title : Danish
Language : Danish (DK)
Default : No
Forced : No

Text #4
ID : 6
Format : UTF-8
Codec ID : S_TEXT/UTF8
Codec ID/Info : UTF-8 Plain Text
Duration : 1 h 29 min
Bit rate : 84 b/s
Frame rate : 0.299 FPS
Count of elements : 1607
Stream size : 55.1 KiB (0%)
Title : German
Language : German (DE)
Default : No
Forced : No

Text #5
ID : 7
Format : UTF-8
Codec ID : S_TEXT/UTF8
Codec ID/Info : UTF-8 Plain Text
Duration : 1 h 29 min
Bit rate : 75 b/s
Frame rate : 0.284 FPS
Count of elements : 1518
Stream size : 49.5 KiB (0%)
Title : Spanish
Language : Spanish (ES)
Default : No
Forced : No

Text #6
ID : 8
Format : UTF-8
Codec ID : S_TEXT/UTF8
Codec ID/Info : UTF-8 Plain Text
Duration : 1 h 29 min
Bit rate : 71 b/s
Frame rate : 0.278 FPS
Count of elements : 1492
Stream size : 46.8 KiB (0%)
Title : Spanish (Latin America)
Language : Spanish (Latin America)
Default : No
Forced : No

Text #7
ID : 9
Format : UTF-8
Codec ID : S_TEXT/UTF8
Codec ID/Info : UTF-8 Plain Text
Duration : 1 h 29 min
Bit rate : 54 b/s
Frame rate : 0.266 FPS
Count of elements : 1429
Stream size : 35.8 KiB (0%)
Title : Finnish
Language : Finnish (FI)
Default : No
Forced : No

Text #8
ID : 10
Format : UTF-8
Codec ID : S_TEXT/UTF8
Codec ID/Info : UTF-8 Plain Text
Duration : 1 h 29 min
Bit rate : 64 b/s
Frame rate : 0.267 FPS
Count of elements : 1433
Stream size : 42.4 KiB (0%)
Title : French
Language : French (FR)
Default : No
Forced : No

Text #9
ID : 11
Format : UTF-8
Codec ID : S_TEXT/UTF8
Codec ID/Info : UTF-8 Plain Text
Duration : 1 h 33 min
Bit rate : 93 b/s
Frame rate : 0.272 FPS
Count of elements : 1524
Stream size : 63.9 KiB (0%)
Title : Hebrew
Language : Hebrew (IL)
Default : No
Forced : No

Text #10
ID : 12
Format : UTF-8
Codec ID : S_TEXT/UTF8
Codec ID/Info : UTF-8 Plain Text
Duration : 1 h 33 min
Bit rate : 181 b/s
Frame rate : 0.278 FPS
Count of elements : 1565
Stream size : 125 KiB (0%)
Title : Hindi
Language : Hindi (IN)
Default : No
Forced : No

Text #11
ID : 13
Format : UTF-8
Codec ID : S_TEXT/UTF8
Codec ID/Info : UTF-8 Plain Text
Duration : 1 h 29 min
Bit rate : 62 b/s
Frame rate : 0.286 FPS
Count of elements : 1529
Stream size : 40.9 KiB (0%)
Title : Indonesian
Language : Indonesian (ID)
Default : No
Forced : No

Text #12
ID : 14
Format : UTF-8
Codec ID : S_TEXT/UTF8
Codec ID/Info : UTF-8 Plain Text
Duration : 1 h 29 min
Bit rate : 72 b/s
Frame rate : 0.284 FPS
Count of elements : 1522
Stream size : 47.2 KiB (0%)
Title : Italian
Language : Italian (IT)
Default : No
Forced : No

Text #13
ID : 15
Format : UTF-8
Codec ID : S_TEXT/UTF8
Codec ID/Info : UTF-8 Plain Text
Duration : 1 h 29 min
Bit rate : 61 b/s
Frame rate : 0.274 FPS
Count of elements : 1465
Stream size : 40.5 KiB (0%)
Title : Japanese
Language : Japanese (JP)
Default : No
Forced : No

Text #14
ID : 16
Format : UTF-8
Codec ID : S_TEXT/UTF8
Codec ID/Info : UTF-8 Plain Text
Duration : 1 h 34 min
Bit rate : 89 b/s
Frame rate : 0.279 FPS
Count of elements : 1571
Stream size : 61.7 KiB (0%)
Title : Korean
Language : Korean (KP)
Default : No
Forced : No

Text #15
ID : 17
Format : UTF-8
Codec ID : S_TEXT/UTF8
Codec ID/Info : UTF-8 Plain Text
Duration : 1 h 29 min
Bit rate : 60 b/s
Frame rate : 0.194 FPS
Count of elements : 1039
Stream size : 39.2 KiB (0%)
Title : Dutch
Language : Dutch (NL)
Default : No
Forced : No

Text #16
ID : 18
Format : UTF-8
Codec ID : S_TEXT/UTF8
Codec ID/Info : UTF-8 Plain Text
Duration : 1 h 29 min
Bit rate : 57 b/s
Frame rate : 0.232 FPS
Count of elements : 1239
Stream size : 37.5 KiB (0%)
Title : Norwegian
Language : Norwegian (NO)
Default : No
Forced : No

Text #17
ID : 19
Format : UTF-8
Codec ID : S_TEXT/UTF8
Codec ID/Info : UTF-8 Plain Text
Duration : 1 h 29 min
Bit rate : 70 b/s
Frame rate : 0.284 FPS
Count of elements : 1526
Stream size : 45.9 KiB (0%)
Title : Polish
Language : Polish (PL)
Default : No
Forced : No

Text #18
ID : 20
Format : UTF-8
Codec ID : S_TEXT/UTF8
Codec ID/Info : UTF-8 Plain Text
Duration : 1 h 29 min
Bit rate : 67 b/s
Frame rate : 0.280 FPS
Count of elements : 1502
Stream size : 44.0 KiB (0%)
Title : Portuguese
Language : Portuguese (PT)
Default : No
Forced : No

Text #19
ID : 21
Format : UTF-8
Codec ID : S_TEXT/UTF8
Codec ID/Info : UTF-8 Plain Text
Duration : 1 h 29 min
Bit rate : 123 b/s
Frame rate : 0.290 FPS
Count of elements : 1555
Stream size : 81.1 KiB (0%)
Title : Russian
Language : Russian (RU)
Default : No
Forced : No

Text #20
ID : 22
Format : UTF-8
Codec ID : S_TEXT/UTF8
Codec ID/Info : UTF-8 Plain Text
Duration : 1 h 29 min
Bit rate : 66 b/s
Frame rate : 0.265 FPS
Count of elements : 1415
Stream size : 43.5 KiB (0%)
Title : Swedish
Language : Swedish (SE)
Default : No
Forced : No

Text #21
ID : 23
Format : UTF-8
Codec ID : S_TEXT/UTF8
Codec ID/Info : UTF-8 Plain Text
Duration : 1 h 29 min
Bit rate : 286 b/s
Frame rate : 0.335 FPS
Count of elements : 1794
Stream size : 187 KiB (0%)
Title : Tamil
Language : Tamil (IN)
Default : No
Forced : No

Text #22
ID : 24
Format : UTF-8
Codec ID : S_TEXT/UTF8
Codec ID/Info : UTF-8 Plain Text
Duration : 1 h 29 min
Bit rate : 243 b/s
Frame rate : 0.312 FPS
Count of elements : 1672
Stream size : 159 KiB (0%)
Title : Telugu
Language : Telugu (IN)
Default : No
Forced : No

Text #23
ID : 25
Format : UTF-8
Codec ID : S_TEXT/UTF8
Codec ID/Info : UTF-8 Plain Text
Duration : 1 h 29 min
Bit rate : 182 b/s
Frame rate : 0.283 FPS
Count of elements : 1517
Stream size : 120 KiB (0%)
Title : Thai
Language : Thai (TH)
Default : No
Forced : No

Text #24
ID : 26
Format : UTF-8
Codec ID : S_TEXT/UTF8
Codec ID/Info : UTF-8 Plain Text
Duration : 1 h 29 min
Bit rate : 78 b/s
Frame rate : 0.285 FPS
Count of elements : 1531
Stream size : 51.2 KiB (0%)
Title : Turkish
Language : Turkish (TR)
Default : No
Forced : No

Text #25
ID : 27
Format : UTF-8
Codec ID : S_TEXT/UTF8
Codec ID/Info : UTF-8 Plain Text
Duration : 1 h 29 min
Bit rate : 60 b/s
Frame rate : 0.283 FPS
Count of elements : 1516
Stream size : 39.9 KiB (0%)
Title : 简体
Language : Chinese (Simplied)

Default : No
Forced : No

Text #26
ID : 28
Format : UTF-8
Codec ID : S_TEXT/UTF8
Codec ID/Info : UTF-8 Plain Text
Duration : 1 h 29 min
Bit rate : 61 b/s
Frame rate : 0.282 FPS
Count of elements : 1514
Stream size : 40.0 KiB (0%)
Title : 繁体
Language : Chinese (Traditional)

Default : No
Forced : No

推荐使用qBittorrent、uTorrent、BitComet等下载软件,有条件的推荐115或会员软件下载!

下载地址

游客,如果您要查看本帖隐藏内容请回复

游客,如果您要查看本帖隐藏内容请回复





上一篇:掮客 [繁粤中字] / Broker (2022) 4K高清版本下载
下一篇:红眼航班 / Puss.in.Boots. (2022) 4K高清版本下载
回复

使用道具 举报

0

主题

1

帖子

6

积分

新手上路

Rank: 1

积分
6
发表于 3 天前 | 显示全部楼层
很好
回复

使用道具 举报

您需要登录后才可以回帖 登录 | 立即注册

本版积分规则

精彩图文
Archiver|手机版|TAG|Sitemap|新帖|专题|联系我们:邮箱: 4kjia.com@gmail.com   

4k家园   ©2019