[4K电影] 爵士情未了你 [简繁中字]/ A Jazzman's Blues (2022)4K高清版本下载

[复制链接]

主题

帖子

0

积分

超级版主

Rank: 8Rank: 8

积分
0
 楼主| 发表于 2023-1-8 19:15:38 | 显示全部楼层 |阅读模式
本帖最后由 最爱4K哟 于 2023-1-22 18:40 编辑

QQ图片20230108200940_副本.png

◎标  题 爵士情未了
◎译  名 像爵士那样忧郁
◎片  名 A Jazzman's Blues
◎年  代 2022
◎产  地 美国
◎类  别 剧情
◎语  言 英语
◎上映日期 2022-09-10(多伦多电影节) / 2022-09-16(美国) / 2022-09-23(美国网络)
◎IMDb评分 6.7/10 from 3242 users 更新 : 2023-01-05
◎IMDb链接 https://www.imdb.com/title/tt14307536/
◎豆瓣评分 6.3/10 from 244 users 更新 : 2023-01-08
◎豆瓣链接 https://movie.douban.com/subject/36024621/
◎片  长 127分钟
◎导  演 泰勒·派瑞 Tyler Perry
◎编  剧 泰勒·派瑞 Tyler Perry
◎演  员 约书亚·布恩 Joshua Boone
       索莱亚·菲佛 Solea Pfeiffer
       阿米拉·万恩 Amirah Vann
       E·罗杰·米切尔 E. Roger Mitchell
       米拉娜·杰克逊 Milauna Jackson
       瑞安·艾戈尔德 Ryan Eggold
       布拉德·本尼迪克特 Brad Benedict
       劳伦·布格利里 Lauren Buglioli
       贝利·M·B Bailey MB
       布兰特·安东尼洛 Brent Antonello
       拉娜·扬 Lana Young
       奥斯汀·斯科特 Austin Scott
       莫内·门罗 Mone Monroe
       科迪·普莱斯利 Cody Pressley
       凯莉·戴维斯 Kelley Davis
       迈克尔·韦恩·托马斯 Michael Wayne Thomas
       罗伯特·史蒂文斯·韦恩 Robert Stevens Wayne
       里奇·科尔伯特 Rickey Colbert

◎简  介


         追踪一桩未侦破的谋杀案的调查,揭开了一个充满禁忌的爱情、欺骗和秘密的故事。
Video
ID : 1
Format : HEVC
Format/Info : High Efficiency Video Coding
Format profile : Main 10@L5@Main
HDR format : Dolby Vision, Version 1.0, dvhe.08.06, BL+RPU, HDR10 compatible / SMPTE ST 2086, HDR10 compatible
Codec ID : V_MPEGH/ISO/HEVC
Duration : 2 h 7 min
Bit rate : 18.2 Mb/s
Width : 3 840 pixels
Height : 2 160 pixels
Display aspect ratio : 16:9
Frame rate mode : Constant
Frame rate : 23.976 (24000/1001) FPS
Color space : YUV
Chroma subsampling : 4:2:0 (Type 2)
Bit depth : 10 bits
Bits/(Pixel*Frame) : 0.091
Stream size : 16.1 GiB (96%)
Language : English
Default : Yes
Forced : No
Color range : Limited
Color primaries : BT.2020
Transfer characteristics : PQ
Matrix coefficients : BT.2020 non-constant
Mastering display color primaries : Display P3
Mastering display luminance : min: 0.0001 cd/m2, max: 1000 cd/m2
Maximum Content Light Level : 756 cd/m2
Maximum Frame-Average Light Level : 97 cd/m2

Audio
ID : 2
Format : E-AC-3 JOC
Format/Info : Enhanced AC-3 with Joint Object Coding
Commercial name : Dolby Digital Plus with Dolby Atmos
Codec ID : A_EAC3
Duration : 2 h 8 min
Bit rate mode : Constant
Bit rate : 768 kb/s
Channel(s) : 6 channels
Channel layout : L R C LFE Ls Rs
Sampling rate : 48.0 kHz
Frame rate : 31.250 FPS (1536 SPF)
Compression mode : Lossy
Stream size : 703 MiB (4%)
Language : English
Service kind : Complete Main
Default : Yes
Forced : No
Complexity index : 16
Number of dynamic objects : 15
Bed channel count : 1 channel
Bed channel configuration : LFE

Text #1
ID : 3
Format : UTF-8
Codec ID : S_TEXT/UTF8
Codec ID/Info : UTF-8 Plain Text
Duration : 1 h 57 min
Bit rate : 57 b/s
Frame rate : 0.218 FPS
Count of elements : 1538
Stream size : 49.5 KiB (0%)
Language : English
Default : No
Forced : No

Text #2
ID : 4
Format : UTF-8
Codec ID : S_TEXT/UTF8
Codec ID/Info : UTF-8 Plain Text
Duration : 2 h 6 min
Bit rate : 74 b/s
Frame rate : 0.276 FPS
Count of elements : 2093
Stream size : 69.0 KiB (0%)
Title : SDH
Language : English
Default : No
Forced : No

Text #3
ID : 5
Format : UTF-8
Codec ID : S_TEXT/UTF8
Codec ID/Info : UTF-8 Plain Text
Duration : 2 h 6 min
Bit rate : 87 b/s
Frame rate : 0.222 FPS
Count of elements : 1684
Stream size : 81.1 KiB (0%)
Language : Arabic
Default : No
Forced : No

Text #4
ID : 6
Format : UTF-8
Codec ID : S_TEXT/UTF8
Codec ID/Info : UTF-8 Plain Text
Duration : 2 h 6 min
Bit rate : 52 b/s
Frame rate : 0.222 FPS
Count of elements : 1682
Stream size : 48.3 KiB (0%)
Language : Czech
Default : No
Forced : No

Text #5
ID : 7
Format : UTF-8
Codec ID : S_TEXT/UTF8
Codec ID/Info : UTF-8 Plain Text
Duration : 2 h 6 min
Bit rate : 49 b/s
Frame rate : 0.205 FPS
Count of elements : 1553
Stream size : 45.7 KiB (0%)
Language : Danish
Default : No
Forced : No

Text #6
ID : 8
Format : UTF-8
Codec ID : S_TEXT/UTF8
Codec ID/Info : UTF-8 Plain Text
Duration : 2 h 6 min
Bit rate : 55 b/s
Frame rate : 0.207 FPS
Count of elements : 1567
Stream size : 51.8 KiB (0%)
Language : German
Default : No
Forced : No

Text #7
ID : 9
Format : UTF-8
Codec ID : S_TEXT/UTF8
Codec ID/Info : UTF-8 Plain Text
Duration : 2 h 6 min
Bit rate : 67 b/s
Frame rate : 0.233 FPS
Count of elements : 1770
Stream size : 62.9 KiB (0%)
Language : German
Default : No
Forced : No

Text #8
ID : 10
Format : UTF-8
Codec ID : S_TEXT/UTF8
Codec ID/Info : UTF-8 Plain Text
Duration : 2 h 6 min
Bit rate : 86 b/s
Frame rate : 0.218 FPS
Count of elements : 1657
Stream size : 80.2 KiB (0%)
Language : Greek
Default : No
Forced : No

Text #9
ID : 11
Format : UTF-8
Codec ID : S_TEXT/UTF8
Codec ID/Info : UTF-8 Plain Text
Duration : 2 h 6 min
Bit rate : 52 b/s
Frame rate : 0.204 FPS
Count of elements : 1542
Stream size : 48.6 KiB (0%)
Title : Latin American
Language : Spanish (Latin America)
Default : No
Forced : No

Text #10
ID : 12
Format : UTF-8
Codec ID : S_TEXT/UTF8
Codec ID/Info : UTF-8 Plain Text
Duration : 2 h 6 min
Bit rate : 49 b/s
Frame rate : 0.219 FPS
Count of elements : 1660
Stream size : 46.2 KiB (0%)
Title : Latin American
Language : Spanish (Latin America)
Default : No
Forced : No

Text #11
ID : 13
Format : UTF-8
Codec ID : S_TEXT/UTF8
Codec ID/Info : UTF-8 Plain Text
Duration : 2 h 6 min
Bit rate : 48 b/s
Frame rate : 0.222 FPS
Count of elements : 1686
Stream size : 44.7 KiB (0%)
Language : Spanish (ES)
Default : No
Forced : No

Text #12
ID : 14
Format : UTF-8
Codec ID : S_TEXT/UTF8
Codec ID/Info : UTF-8 Plain Text
Duration : 2 h 6 min
Bit rate : 50 b/s
Frame rate : 0.191 FPS
Count of elements : 1446
Stream size : 46.5 KiB (0%)
Language : Finnish
Default : No
Forced : No

Text #13
ID : 15
Format : UTF-8
Codec ID : S_TEXT/UTF8
Codec ID/Info : UTF-8 Plain Text
Duration : 2 h 6 min
Bit rate : 50 b/s
Frame rate : 0.222 FPS
Count of elements : 1682
Stream size : 46.3 KiB (0%)
Language : French
Default : No
Forced : No

Text #14
ID : 16
Format : UTF-8
Codec ID : S_TEXT/UTF8
Codec ID/Info : UTF-8 Plain Text
Duration : 2 h 6 min
Bit rate : 76 b/s
Frame rate : 0.271 FPS
Count of elements : 2059
Stream size : 70.7 KiB (0%)
Language : French
Default : No
Forced : No

Text #15
ID : 17
Format : UTF-8
Codec ID : S_TEXT/UTF8
Codec ID/Info : UTF-8 Plain Text
Duration : 2 h 6 min
Bit rate : 84 b/s
Frame rate : 0.221 FPS
Count of elements : 1678
Stream size : 78.1 KiB (0%)
Language : Hebrew
Default : No
Forced : No

Text #16
ID : 18
Format : UTF-8
Codec ID : S_TEXT/UTF8
Codec ID/Info : UTF-8 Plain Text
Duration : 2 h 6 min
Bit rate : 48 b/s
Frame rate : 0.221 FPS
Count of elements : 1675
Stream size : 44.8 KiB (0%)
Language : Croatian
Default : No
Forced : No

Text #17
ID : 19
Format : UTF-8
Codec ID : S_TEXT/UTF8
Codec ID/Info : UTF-8 Plain Text
Duration : 2 h 6 min
Bit rate : 50 b/s
Frame rate : 0.208 FPS
Count of elements : 1580
Stream size : 46.9 KiB (0%)
Language : Hungarian
Default : No
Forced : No

Text #18
ID : 20
Format : UTF-8
Codec ID : S_TEXT/UTF8
Codec ID/Info : UTF-8 Plain Text
Duration : 2 h 6 min
Bit rate : 54 b/s
Frame rate : 0.213 FPS
Count of elements : 1615
Stream size : 50.1 KiB (0%)
Language : Indonesian
Default : No
Forced : No

Text #19
ID : 21
Format : UTF-8
Codec ID : S_TEXT/UTF8
Codec ID/Info : UTF-8 Plain Text
Duration : 2 h 6 min
Bit rate : 51 b/s
Frame rate : 0.210 FPS
Count of elements : 1591
Stream size : 47.4 KiB (0%)
Language : Italian
Default : No
Forced : No

Text #20
ID : 22
Format : UTF-8
Codec ID : S_TEXT/UTF8
Codec ID/Info : UTF-8 Plain Text
Duration : 2 h 6 min
Bit rate : 55 b/s
Frame rate : 0.225 FPS
Count of elements : 1704
Stream size : 51.7 KiB (0%)
Language : Japanese
Default : No
Forced : No

Text #21
ID : 23
Format : UTF-8
Codec ID : S_TEXT/UTF8
Codec ID/Info : UTF-8 Plain Text
Duration : 2 h 6 min
Bit rate : 59 b/s
Frame rate : 0.223 FPS
Count of elements : 1693
Stream size : 55.5 KiB (0%)
Language : Korean
Default : No
Forced : No

Text #22
ID : 24
Format : UTF-8
Codec ID : S_TEXT/UTF8
Codec ID/Info : UTF-8 Plain Text
Duration : 1 h 58 min
Bit rate : 53 b/s
Frame rate : 0.215 FPS
Count of elements : 1537
Stream size : 46.2 KiB (0%)
Language : Malay
Default : No
Forced : No

Text #23
ID : 25
Format : UTF-8
Codec ID : S_TEXT/UTF8
Codec ID/Info : UTF-8 Plain Text
Duration : 2 h 6 min
Bit rate : 52 b/s
Frame rate : 0.204 FPS
Count of elements : 1545
Stream size : 48.5 KiB (0%)
Language : Norwegian Bokmal
Default : No
Forced : No

Text #24
ID : 26
Format : UTF-8
Codec ID : S_TEXT/UTF8
Codec ID/Info : UTF-8 Plain Text
Duration : 2 h 6 min
Bit rate : 50 b/s
Frame rate : 0.214 FPS
Count of elements : 1624
Stream size : 47.0 KiB (0%)
Language : Dutch
Default : No
Forced : No

Text #25
ID : 27
Format : UTF-8
Codec ID : S_TEXT/UTF8
Codec ID/Info : UTF-8 Plain Text
Duration : 2 h 6 min
Bit rate : 45 b/s
Frame rate : 0.217 FPS
Count of elements : 1643
Stream size : 42.0 KiB (0%)
Language : Polish
Default : No
Forced : No

Text #26
ID : 28
Format : UTF-8
Codec ID : S_TEXT/UTF8
Codec ID/Info : UTF-8 Plain Text
Duration : 1 h 57 min
Bit rate : 59 b/s
Frame rate : 0.218 FPS
Count of elements : 1539
Stream size : 51.4 KiB (0%)
Title : Brazilian
Language : Portuguese (BR)
Default : No
Forced : No

Text #27
ID : 29
Format : UTF-8
Codec ID : S_TEXT/UTF8
Codec ID/Info : UTF-8 Plain Text
Duration : 2 h 6 min
Bit rate : 52 b/s
Frame rate : 0.223 FPS
Count of elements : 1689
Stream size : 48.8 KiB (0%)
Title : Brazilian
Language : Portuguese (BR)
Default : No
Forced : No

Text #28
ID : 30
Format : UTF-8
Codec ID : S_TEXT/UTF8
Codec ID/Info : UTF-8 Plain Text
Duration : 2 h 6 min
Bit rate : 51 b/s
Frame rate : 0.209 FPS
Count of elements : 1588
Stream size : 47.6 KiB (0%)
Language : Portuguese (PT)
Default : No
Forced : No

Text #29
ID : 31
Format : UTF-8
Codec ID : S_TEXT/UTF8
Codec ID/Info : UTF-8 Plain Text
Duration : 2 h 6 min
Bit rate : 58 b/s
Frame rate : 0.197 FPS
Count of elements : 1491
Stream size : 53.8 KiB (0%)
Language : Romanian
Default : No
Forced : No

Text #30
ID : 32
Format : UTF-8
Codec ID : S_TEXT/UTF8
Codec ID/Info : UTF-8 Plain Text
Duration : 2 h 6 min
Bit rate : 82 b/s
Frame rate : 0.217 FPS
Count of elements : 1649
Stream size : 76.5 KiB (0%)
Language : Russian
Default : No
Forced : No

Text #31
ID : 33
Format : UTF-8
Codec ID : S_TEXT/UTF8
Codec ID/Info : UTF-8 Plain Text
Duration : 2 h 6 min
Bit rate : 51 b/s
Frame rate : 0.205 FPS
Count of elements : 1554
Stream size : 47.5 KiB (0%)
Language : Swedish
Default : No
Forced : No

Text #32
ID : 34
Format : UTF-8
Codec ID : S_TEXT/UTF8
Codec ID/Info : UTF-8 Plain Text
Duration : 2 h 6 min
Bit rate : 133 b/s
Frame rate : 0.220 FPS
Count of elements : 1667
Stream size : 123 KiB (0%)
Language : Thai
Default : No
Forced : No

Text #33
ID : 35
Format : UTF-8
Codec ID : S_TEXT/UTF8
Codec ID/Info : UTF-8 Plain Text
Duration : 2 h 6 min
Bit rate : 52 b/s
Frame rate : 0.219 FPS
Count of elements : 1658
Stream size : 48.4 KiB (0%)
Language : Turkish
Default : No
Forced : No

Text #34
ID : 36
Format : UTF-8
Codec ID : S_TEXT/UTF8
Codec ID/Info : UTF-8 Plain Text
Duration : 2 h 6 min
Bit rate : 83 b/s
Frame rate : 0.218 FPS
Count of elements : 1655
Stream size : 77.5 KiB (0%)
Language : Ukrainian
Default : No
Forced : No

Text #35
ID : 37
Format : UTF-8
Codec ID : S_TEXT/UTF8
Codec ID/Info : UTF-8 Plain Text
Duration : 2 h 6 min
Bit rate : 76 b/s
Frame rate : 0.202 FPS
Count of elements : 1531
Stream size : 71.2 KiB (0%)
Language : Vietnamese
Default : No
Forced : No

Text #36
ID : 38
Format : UTF-8
Codec ID : S_TEXT/UTF8
Codec ID/Info : UTF-8 Plain Text
Duration : 2 h 6 min
Bit rate : 55 b/s
Frame rate : 0.220 FPS
Count of elements : 1668
Stream size : 51.4 KiB (0%)
Title : 简体
Language : Chinese (Simplied)

Default : No
Forced : No

Text #37
ID : 39
Format : UTF-8
Codec ID : S_TEXT/UTF8
Codec ID/Info : UTF-8 Plain Text
Duration : 2 h 6 min
Bit rate : 54 b/s
Frame rate : 0.223 FPS
Count of elements : 1689
Stream size : 50.8 KiB (0%)
Title : 繁体
Language : Chinese (Traditional)

Default : No
Forced : No

Menu
02:00:44.000 : en:End Credits

推荐使用qBittorrent、uTorrent、BitComet等下载软件,有条件的推荐115或会员软件下载!

下载地址

游客,如果您要查看本帖隐藏内容请回复

游客,如果您要查看本帖隐藏内容请回复







上一篇:末日戒备 [简繁中字] / The Peacemaker (1997) 4K高清版本下载
下一篇:成人级爱情 [简繁中字] / Loving Adults (2022) 4K高清版本下载
回复

使用道具 举报

0

主题

1

帖子

15

积分

新手上路

Rank: 1

积分
15
发表于 2023-1-9 11:06:20 | 显示全部楼层
download link?
回复 支持 反对

使用道具 举报

0

主题

3

帖子

21

积分

新手上路

Rank: 1

积分
21
发表于 2023-1-9 13:50:10 | 显示全部楼层
谢谢楼主 楼主辛苦了
回复 支持 反对

使用道具 举报

您需要登录后才可以回帖 登录 | 立即注册

本版积分规则

精彩图文
Archiver|手机版|TAG|Sitemap|新帖|专题|联系我们:邮箱: 4kjia.com@gmail.com   

4k家园   ©2019