[4K电影] 成人级爱情 [简繁中字] / Loving Adults (2022) 4K高清版本下载

[复制链接]

主题

帖子

0

积分

超级版主

Rank: 8Rank: 8

积分
0
 楼主| 发表于 2023-1-8 19:21:27 | 显示全部楼层 |阅读模式
本帖最后由 最爱4K哟 于 2023-1-9 10:11 编辑

QQ图片20230108200750_副本.png

◎译  名 成人级爱情
◎片  名 Kærlighed for voksne / Loving Adults
◎年  代 2022
◎产  地 丹麦
◎类  别 剧情 / 惊悚 / 犯罪
◎语  言 丹麦语
◎字  幕 中英双字
◎上映日期 2022-08-26(丹麦网络)
◎IMDb评分 6.5/10 from 9224 users 更新 : 2023-01-06
◎IMDb链接 https://www.imdb.com/title/tt0119874/
◎豆瓣评分 7.1/10 from 5028 users 更新 : 2023-01-08
◎豆瓣链接 https://movie.douban.com/subject/35459975/
◎片  长 104分钟
◎导  演 芭芭拉·罗森博格 Barbara Topsøe-Rothenborg
◎编  剧 安娜·艾克伯格 Anna Ekberg / 安德斯·劳诺·克拉伦 Anders Rønnow Klarlund
◎演  员 达尔·萨利姆 Dar Salim
       松佳·里奇特 Sonja Richter
       苏丝·威尔金斯 Sus Wilkins
       拉斯·兰特 Lars Ranthe
       米凯尔·比克耶 Mikael Birkkjær
       摩顿·伯安 Morten Burian
       苏珊娜·斯托姆 Susanne Storm
       安德斯·尼博格 Anders Nyborg
       本杰明·基特 Benjamin Kitter

◎简  介

  妻子发现丈夫外遇,爱即刻转变为致命恨意。而为了达到目的,两人都将不择手段。

Video
ID : 1
Format : HEVC
Format/Info : High Efficiency Video Coding
Format profile : Main 10@L5@Main
HDR format : Dolby Vision, Version 1.0, dvhe.08.06, BL+RPU, HDR10 compatible / SMPTE ST 2086, HDR10 compatible
Codec ID : V_MPEGH/ISO/HEVC
Duration : 1 h 44 min
Bit rate : 14.3 Mb/s
Width : 3 840 pixels
Height : 2 160 pixels
Display aspect ratio : 16:9
Frame rate mode : Constant
Frame rate : 24.000 FPS
Color space : YUV
Chroma subsampling : 4:2:0 (Type 2)
Bit depth : 10 bits
Bits/(Pixel*Frame) : 0.072
Stream size : 10.5 GiB (96%)
Language : Danish
Default : Yes
Forced : No
Color range : Limited
Color primaries : BT.2020
Transfer characteristics : PQ
Matrix coefficients : BT.2020 non-constant
Mastering display color primaries : Display P3
Mastering display luminance : min: 0.0001 cd/m2, max: 1000 cd/m2
Maximum Content Light Level : 1154 cd/m2
Maximum Frame-Average Light Level : 328 cd/m2

Audio
ID : 2
Format : E-AC-3
Format/Info : Enhanced AC-3
Commercial name : Dolby Digital Plus
Codec ID : A_EAC3
Duration : 1 h 46 min
Bit rate mode : Constant
Bit rate : 640 kb/s
Channel(s) : 6 channels
Channel layout : L R C LFE Ls Rs
Sampling rate : 48.0 kHz
Frame rate : 31.250 FPS (1536 SPF)
Compression mode : Lossy
Stream size : 486 MiB (4%)
Language : Danish
Service kind : Complete Main
Default : Yes
Forced : No

Text #1
ID : 3
Format : UTF-8
Codec ID : S_TEXT/UTF8
Codec ID/Info : UTF-8 Plain Text
Duration : 1 h 1 min
Bit rate : 0 b/s
Frame rate : 0.003 FPS
Count of elements : 11
Stream size : 416 Bytes (0%)
Title : Forced
Language : Danish
Default : Yes
Forced : Yes

Text #2
ID : 4
Format : UTF-8
Codec ID : S_TEXT/UTF8
Codec ID/Info : UTF-8 Plain Text
Duration : 1 h 41 min
Bit rate : 48 b/s
Frame rate : 0.163 FPS
Count of elements : 989
Stream size : 36.3 KiB (0%)
Language : Danish
Default : No
Forced : No

Text #3
ID : 5
Format : UTF-8
Codec ID : S_TEXT/UTF8
Codec ID/Info : UTF-8 Plain Text
Duration : 1 h 41 min
Bit rate : 59 b/s
Frame rate : 0.190 FPS
Count of elements : 1162
Stream size : 44.4 KiB (0%)
Title : SDH
Language : Danish
Default : No
Forced : No

Text #4
ID : 6
Format : UTF-8
Codec ID : S_TEXT/UTF8
Codec ID/Info : UTF-8 Plain Text
Duration : 1 h 44 min
Bit rate : 76 b/s
Frame rate : 0.168 FPS
Count of elements : 1055
Stream size : 58.5 KiB (0%)
Language : Arabic
Default : No
Forced : No

Text #5
ID : 7
Format : UTF-8
Codec ID : S_TEXT/UTF8
Codec ID/Info : UTF-8 Plain Text
Duration : 1 h 43 min
Bit rate : 42 b/s
Frame rate : 0.171 FPS
Count of elements : 1057
Stream size : 32.4 KiB (0%)
Language : Catalan
Default : No
Forced : No

Text #6
ID : 8
Format : UTF-8
Codec ID : S_TEXT/UTF8
Codec ID/Info : UTF-8 Plain Text
Duration : 1 h 44 min
Bit rate : 41 b/s
Frame rate : 0.160 FPS
Count of elements : 1004
Stream size : 32.0 KiB (0%)
Language : Czech
Default : No
Forced : No

Text #7
ID : 9
Format : UTF-8
Codec ID : S_TEXT/UTF8
Codec ID/Info : UTF-8 Plain Text
Duration : 1 h 44 min
Bit rate : 44 b/s
Frame rate : 0.158 FPS
Count of elements : 989
Stream size : 34.3 KiB (0%)
Language : German
Default : No
Forced : No

Text #8
ID : 10
Format : UTF-8
Codec ID : S_TEXT/UTF8
Codec ID/Info : UTF-8 Plain Text
Duration : 1 h 44 min
Bit rate : 74 b/s
Frame rate : 0.171 FPS
Count of elements : 1069
Stream size : 56.8 KiB (0%)
Language : Greek
Default : No
Forced : No

Text #9
ID : 11
Format : UTF-8
Codec ID : S_TEXT/UTF8
Codec ID/Info : UTF-8 Plain Text
Duration : 1 h 39 min
Bit rate : 48 b/s
Frame rate : 0.202 FPS
Count of elements : 1214
Stream size : 35.3 KiB (0%)
Language : English
Default : No
Forced : No

Text #10
ID : 12
Format : UTF-8
Codec ID : S_TEXT/UTF8
Codec ID/Info : UTF-8 Plain Text
Duration : 1 h 43 min
Bit rate : 44 b/s
Frame rate : 0.172 FPS
Count of elements : 1068
Stream size : 33.8 KiB (0%)
Language : English
Default : No
Forced : No

Text #11
ID : 13
Format : UTF-8
Codec ID : S_TEXT/UTF8
Codec ID/Info : UTF-8 Plain Text
Duration : 1 h 41 min
Bit rate : 55 b/s
Frame rate : 0.237 FPS
Count of elements : 1445
Stream size : 41.3 KiB (0%)
Title : SDH
Language : English
Default : No
Forced : No

Text #12
ID : 14
Format : UTF-8
Codec ID : S_TEXT/UTF8
Codec ID/Info : UTF-8 Plain Text
Duration : 1 h 41 min
Bit rate : 49 b/s
Frame rate : 0.187 FPS
Count of elements : 1133
Stream size : 36.7 KiB (0%)
Title : Latin American
Language : Spanish (Latin America)
Default : No
Forced : No

Text #13
ID : 15
Format : UTF-8
Codec ID : S_TEXT/UTF8
Codec ID/Info : UTF-8 Plain Text
Duration : 1 h 44 min
Bit rate : 44 b/s
Frame rate : 0.169 FPS
Count of elements : 1062
Stream size : 34.1 KiB (0%)
Title : Latin American
Language : Spanish (Latin America)
Default : No
Forced : No

Text #14
ID : 16
Format : UTF-8
Codec ID : S_TEXT/UTF8
Codec ID/Info : UTF-8 Plain Text
Duration : 1 h 44 min
Bit rate : 42 b/s
Frame rate : 0.166 FPS
Count of elements : 1044
Stream size : 32.9 KiB (0%)
Language : Spanish (ES)
Default : No
Forced : No

Text #15
ID : 17
Format : UTF-8
Codec ID : S_TEXT/UTF8
Codec ID/Info : UTF-8 Plain Text
Duration : 1 h 43 min
Bit rate : 45 b/s
Frame rate : 0.171 FPS
Count of elements : 1057
Stream size : 34.1 KiB (0%)
Language : Basque
Default : No
Forced : No

Text #16
ID : 18
Format : UTF-8
Codec ID : S_TEXT/UTF8
Codec ID/Info : UTF-8 Plain Text
Duration : 1 h 44 min
Bit rate : 41 b/s
Frame rate : 0.173 FPS
Count of elements : 1088
Stream size : 31.9 KiB (0%)
Language : Finnish
Default : No
Forced : No

Text #17
ID : 19
Format : UTF-8
Codec ID : S_TEXT/UTF8
Codec ID/Info : UTF-8 Plain Text
Duration : 1 h 44 min
Bit rate : 42 b/s
Frame rate : 0.164 FPS
Count of elements : 1029
Stream size : 32.4 KiB (0%)
Language : French
Default : No
Forced : No

Text #18
ID : 20
Format : UTF-8
Codec ID : S_TEXT/UTF8
Codec ID/Info : UTF-8 Plain Text
Duration : 1 h 43 min
Bit rate : 38 b/s
Frame rate : 0.170 FPS
Count of elements : 1056
Stream size : 29.2 KiB (0%)
Language : Galician
Default : No
Forced : No

Text #19
ID : 21
Format : UTF-8
Codec ID : S_TEXT/UTF8
Codec ID/Info : UTF-8 Plain Text
Duration : 1 h 44 min
Bit rate : 69 b/s
Frame rate : 0.170 FPS
Count of elements : 1065
Stream size : 53.6 KiB (0%)
Language : Hebrew
Default : No
Forced : No

Text #20
ID : 22
Format : UTF-8
Codec ID : S_TEXT/UTF8
Codec ID/Info : UTF-8 Plain Text
Duration : 1 h 44 min
Bit rate : 40 b/s
Frame rate : 0.168 FPS
Count of elements : 1057
Stream size : 30.9 KiB (0%)
Language : Croatian
Default : No
Forced : No

Text #21
ID : 23
Format : UTF-8
Codec ID : S_TEXT/UTF8
Codec ID/Info : UTF-8 Plain Text
Duration : 1 h 44 min
Bit rate : 41 b/s
Frame rate : 0.168 FPS
Count of elements : 1054
Stream size : 32.1 KiB (0%)
Language : Hungarian
Default : No
Forced : No

Text #22
ID : 24
Format : UTF-8
Codec ID : S_TEXT/UTF8
Codec ID/Info : UTF-8 Plain Text
Duration : 1 h 44 min
Bit rate : 42 b/s
Frame rate : 0.169 FPS
Count of elements : 1058
Stream size : 32.3 KiB (0%)
Language : Indonesian
Default : No
Forced : No

Text #23
ID : 25
Format : UTF-8
Codec ID : S_TEXT/UTF8
Codec ID/Info : UTF-8 Plain Text
Duration : 1 h 44 min
Bit rate : 40 b/s
Frame rate : 0.167 FPS
Count of elements : 1048
Stream size : 31.2 KiB (0%)
Language : Italian
Default : No
Forced : No

Text #24
ID : 26
Format : UTF-8
Codec ID : S_TEXT/UTF8
Codec ID/Info : UTF-8 Plain Text
Duration : 1 h 44 min
Bit rate : 43 b/s
Frame rate : 0.190 FPS
Count of elements : 1192
Stream size : 33.4 KiB (0%)
Language : Japanese
Default : No
Forced : No

Text #25
ID : 27
Format : UTF-8
Codec ID : S_TEXT/UTF8
Codec ID/Info : UTF-8 Plain Text
Duration : 1 h 44 min
Bit rate : 55 b/s
Frame rate : 0.184 FPS
Count of elements : 1153
Stream size : 42.8 KiB (0%)
Language : Korean
Default : No
Forced : No

Text #26
ID : 28
Format : UTF-8
Codec ID : S_TEXT/UTF8
Codec ID/Info : UTF-8 Plain Text
Duration : 1 h 44 min
Bit rate : 42 b/s
Frame rate : 0.174 FPS
Count of elements : 1094
Stream size : 32.6 KiB (0%)
Language : Malay
Default : No
Forced : No

Text #27
ID : 29
Format : UTF-8
Codec ID : S_TEXT/UTF8
Codec ID/Info : UTF-8 Plain Text
Duration : 1 h 44 min
Bit rate : 41 b/s
Frame rate : 0.162 FPS
Count of elements : 1014
Stream size : 31.7 KiB (0%)
Language : Norwegian Bokmal
Default : No
Forced : No

Text #28
ID : 30
Format : UTF-8
Codec ID : S_TEXT/UTF8
Codec ID/Info : UTF-8 Plain Text
Duration : 1 h 44 min
Bit rate : 39 b/s
Frame rate : 0.157 FPS
Count of elements : 988
Stream size : 30.3 KiB (0%)
Language : Dutch
Default : No
Forced : No

Text #29
ID : 31
Format : UTF-8
Codec ID : S_TEXT/UTF8
Codec ID/Info : UTF-8 Plain Text
Duration : 1 h 44 min
Bit rate : 42 b/s
Frame rate : 0.167 FPS
Count of elements : 1049
Stream size : 32.7 KiB (0%)
Language : Polish
Default : No
Forced : No

Text #30
ID : 32
Format : UTF-8
Codec ID : S_TEXT/UTF8
Codec ID/Info : UTF-8 Plain Text
Duration : 1 h 44 min
Bit rate : 42 b/s
Frame rate : 0.170 FPS
Count of elements : 1068
Stream size : 32.4 KiB (0%)
Title : Brazilian
Language : Portuguese (BR)
Default : No
Forced : No

Text #31
ID : 33
Format : UTF-8
Codec ID : S_TEXT/UTF8
Codec ID/Info : UTF-8 Plain Text
Duration : 1 h 44 min
Bit rate : 43 b/s
Frame rate : 0.202 FPS
Count of elements : 1265
Stream size : 33.0 KiB (0%)
Language : Portuguese (PT)
Default : No
Forced : No

Text #32
ID : 34
Format : UTF-8
Codec ID : S_TEXT/UTF8
Codec ID/Info : UTF-8 Plain Text
Duration : 1 h 44 min
Bit rate : 45 b/s
Frame rate : 0.161 FPS
Count of elements : 1012
Stream size : 35.2 KiB (0%)
Language : Romanian
Default : No
Forced : No

Text #33
ID : 35
Format : UTF-8
Codec ID : S_TEXT/UTF8
Codec ID/Info : UTF-8 Plain Text
Duration : 1 h 44 min
Bit rate : 67 b/s
Frame rate : 0.170 FPS
Count of elements : 1066
Stream size : 51.5 KiB (0%)
Language : Russian
Default : No
Forced : No

Text #34
ID : 36
Format : UTF-8
Codec ID : S_TEXT/UTF8
Codec ID/Info : UTF-8 Plain Text
Duration : 1 h 44 min
Bit rate : 40 b/s
Frame rate : 0.157 FPS
Count of elements : 986
Stream size : 31.0 KiB (0%)
Language : Swedish
Default : No
Forced : No

Text #35
ID : 37
Format : UTF-8
Codec ID : S_TEXT/UTF8
Codec ID/Info : UTF-8 Plain Text
Duration : 1 h 44 min
Bit rate : 108 b/s
Frame rate : 0.171 FPS
Count of elements : 1071
Stream size : 83.2 KiB (0%)
Language : Thai
Default : No
Forced : No

Text #36
ID : 38
Format : UTF-8
Codec ID : S_TEXT/UTF8
Codec ID/Info : UTF-8 Plain Text
Duration : 1 h 44 min
Bit rate : 42 b/s
Frame rate : 0.141 FPS
Count of elements : 883
Stream size : 32.8 KiB (0%)
Language : Turkish
Default : No
Forced : No

Text #37
ID : 39
Format : UTF-8
Codec ID : S_TEXT/UTF8
Codec ID/Info : UTF-8 Plain Text
Duration : 1 h 44 min
Bit rate : 67 b/s
Frame rate : 0.168 FPS
Count of elements : 1055
Stream size : 51.9 KiB (0%)
Language : Ukrainian
Default : No
Forced : No

Text #38
ID : 40
Format : UTF-8
Codec ID : S_TEXT/UTF8
Codec ID/Info : UTF-8 Plain Text
Duration : 1 h 44 min
Bit rate : 59 b/s
Frame rate : 0.164 FPS
Count of elements : 1030
Stream size : 45.9 KiB (0%)
Language : Vietnamese
Default : No
Forced : No

Text #39
ID : 41
Format : UTF-8
Codec ID : S_TEXT/UTF8
Codec ID/Info : UTF-8 Plain Text
Duration : 1 h 44 min
Bit rate : 43 b/s
Frame rate : 0.171 FPS
Count of elements : 1076
Stream size : 33.5 KiB (0%)
Title : 简体
Language : Chinese (Simplied)

Default : No
Forced : No

Text #40
ID : 42
Format : UTF-8
Codec ID : S_TEXT/UTF8
Codec ID/Info : UTF-8 Plain Text
Duration : 1 h 44 min
Bit rate : 42 b/s
Frame rate : 0.168 FPS
Count of elements : 1055
Stream size : 32.5 KiB (0%)
Title : 繁体
Language : Chinese (Traditional)

Default : No
Forced : No

Menu
01:42:01.000 : en:End Credits

推荐使用qBittorrent、uTorrent、BitComet等下载软件,有条件的推荐115或会员软件下载!

下载地址


游客,如果您要查看本帖隐藏内容请回复








上一篇:爵士情未了你 [简繁中字]/ A Jazzman's Blues (2022)4K高清版本下载
下一篇:忠诚 / Devotion (2022) 4K高清版本下载
回复

使用道具 举报

主题

帖子

0

积分

新手上路

Rank: 1

积分
0
发表于 2023-1-10 01:12:14 | 显示全部楼层
感谢
回复

使用道具 举报

主题

帖子

0

积分

4K家园VIP

Rank: 9Rank: 9Rank: 9

积分
0
发表于 2023-1-12 22:24:42 来自手机 | 显示全部楼层
谢谢!
回复

使用道具 举报

0

主题

1

帖子

6

积分

新手上路

Rank: 1

积分
6
发表于 2023-1-13 14:07:34 来自手机 | 显示全部楼层
好的
回复

使用道具 举报

0

主题

3

帖子

12

积分

新手上路

Rank: 1

积分
12
发表于 6 天前 | 显示全部楼层
哈哈哈哈哈哈哈!
回复 支持 反对

使用道具 举报

0

主题

2

帖子

9

积分

新手上路

Rank: 1

积分
9
发表于 6 天前 | 显示全部楼层
非常牛的
回复

使用道具 举报

0

主题

2

帖子

9

积分

新手上路

Rank: 1

积分
9
发表于 6 天前 | 显示全部楼层
怎么下载呀?
回复 支持 反对

使用道具 举报

0

主题

7

帖子

25

积分

新手上路

Rank: 1

积分
25
发表于 前天 10:31 | 显示全部楼层
非常牛的片子
回复 支持 反对

使用道具 举报

0

主题

15

帖子

41

积分

新手上路

Rank: 1

积分
41
发表于 昨天 23:47 | 显示全部楼层
666666666
回复

使用道具 举报

您需要登录后才可以回帖 登录 | 立即注册

本版积分规则

精彩图文
Archiver|手机版|TAG|Sitemap|新帖|专题|联系我们:邮箱: 4kjia.com@gmail.com   

4k家园   ©2019