[4K电影] 忠诚 / Devotion (2022) 4K高清版本下载

[复制链接]

主题

帖子

0

积分

超级版主

Rank: 8Rank: 8

积分
0
 楼主| 发表于 2023-1-8 19:29:20 | 显示全部楼层 |阅读模式
本帖最后由 最爱4K哟 于 2023-1-9 10:28 编辑

QQ图片20230108201841_副本.png


◎译  名 忠诚:英雄主义、友谊、牺牲的史诗故事 / 决战38度线(台) / Devotion: An Epic Story of Heroism, Friendship, and Sacrific
◎片  名 Devotion
◎年  代 2022
◎产  地 美国
◎类  别 剧情 / 动作 / 战争
◎语  言 英语
◎上映日期 2022-09-12(多伦多电影节) / 2022-10-28(美国)
◎IMDb评分 6.9/10 from 4384 users 更新 : 2023-01-09
◎IMDb链接 https://www.imdb.com/title/tt7693316/
◎豆瓣评分 0/10 from 0 users
◎豆瓣链接 https://movie.douban.com/subject/1293506/
◎片  长 138 分钟
◎导  演 J·D·迪拉德 J.D. Dillard
◎编  剧 杰克·克莱恩 Jake Crane / 乔纳森·斯图尔特 Jonathan Stewart / 亚当·马科斯 Adam Makos
◎演  员 乔纳森·梅杰斯 Jonathan Majors
                   格伦·鲍威尔 Glen Powell
                   赛琳达·斯万 Serinda Swan
                   托马斯·萨多斯基 Thomas Sadoski
                   约瑟夫·克罗斯 Joseph Cross
                   乔·乔纳斯 Joe Jonas
                   达伦·卡加索夫 Daren Kagasoff
                   斯宾瑟·内维尔 Spencer Neville
                   马特·雷迪 Matt Riedy
                   洛根·麦克雷 Logan Macrae
                   尼克·哈格罗弗 Nick Hargrove
                   布恩·普拉特 Boone Platt
                   艾米莉·布林斯 Emily Brinks
                   克里斯蒂娜·杰克逊 Christina Jackson
                   肯尼斯·特鲁希略 Kenneth Trujillo
                   阿德丁博·汤玛斯 Adetinpo Thomas
                   迪安·丹顿 Dean Denton
                   巴迪·沃特金斯 Buddy Watkins
                   托德·布朗 Todd Brown
                   朱莉·凯斯勒 Julie Kessler


◎简  介

        Black Label Media将把2015年亚当·马库斯的著作《忠诚:英雄主义、友谊、牺牲的史诗故事》(Devotion: An Epic Story of Heroism, Friendship, and Sacrifice)搬上大银幕。小说围绕两名朝鲜战争的飞行员展开,其中一名来自富裕的英格兰家庭,另一个是来自密西西比黑人家庭。两人成为美国历史上顶尖的飞行员。格伦·鲍威尔([隐藏人物])将参演影片。本片由杰克·克兰、乔纳森·斯图尔特打造剧本。
Video
ID : 1
Format : HEVC
Format/Info : High Efficiency Video Coding
Format profile : Main 10@L5@High
HDR format : Dolby Vision, Version 1.0, dvhe.05.06, BL+RPU
Codec ID : dvhe
Codec ID/Info : High Efficiency Video Coding with Dolby Vision
Duration : 2 h 19 min
Bit rate : 24.4 Mb/s
Width : 3 840 pixels
Original width : 3 836 pixels
Height : 1 744 pixels
Display aspect ratio : 2.2:1
Original display aspect ratio : 2.2:1
Frame rate mode : Constant
Frame rate : 23.976 (24000/1001) FPS
Color space : YUV
Chroma subsampling : 4:2:0
Bit depth : 10 bits
Bits/(Pixel*Frame) : 0.152
Stream size : 23.7 GiB (97%)
Default : Yes
Alternate group : 1
Encoded date : UTC 2023-01-08 06:06:12
Tagged date : UTC 2023-01-08 06:10:13
Codec configuration box : hvcC+dvcC

Audio
ID : 2
Format : E-AC-3 JOC
Format/Info : Enhanced AC-3 with Joint Object Coding
Commercial name : Dolby Digital Plus with Dolby Atmos
Codec ID : ec-3
Duration : 2 h 19 min
Bit rate mode : Constant
Bit rate : 768 kb/s
Maximum bit rate : 811 kb/s
Channel(s) : 6 channels
Channel layout : L R C LFE Ls Rs
Sampling rate : 48.0 kHz
Frame rate : 31.250 FPS (1536 SPF)
Compression mode : Lossy
Stream size : 764 MiB (3%)
Title : English
Language : English
Service kind : Complete Main
Default : Yes
Alternate group : 1
Tagged date : UTC 2023-01-08 06:10:13
Complexity index : Not present / 16
Number of dynamic objects : 15
Bed channel count : 1 channel
Bed channel configuration : LFE

Text #1
ID : 3
Format : Timed Text
Codec ID : tx3g
Duration : 2 h 8 min
Bit rate mode : Variable
Bit rate : 62 b/s
Frame rate : 0.432 FPS
Stream size : 58.1 KiB (0%)
Title : English
Language : English
Forced : No
Encoded date : UTC 2023-01-08 06:10:13
Tagged date : UTC 2023-01-08 06:10:13

Text #2
ID : 4
Format : Timed Text
Codec ID : tx3g
Duration : 2 h 8 min
Bit rate mode : Variable
Bit rate : 54 b/s
Frame rate : 0.369 FPS
Stream size : 50.9 KiB (0%)
Title : English
Language : English
Forced : No
Encoded date : UTC 2023-01-08 06:10:13
Tagged date : UTC 2023-01-08 06:10:13

推荐使用qBittorrent、uTorrent、BitComet等下载软件,有条件的推荐115或会员软件下载!

下载地址


游客,如果您要查看本帖隐藏内容请回复

游客,如果您要查看本帖隐藏内容请回复

游客,如果您要查看本帖隐藏内容请回复







上一篇:成人级爱情 [简繁中字] / Loving Adults (2022) 4K高清版本下载
下一篇:一落千丈:波音大调查 [简繁中字] (2022) 4K高清版本下载
回复

使用道具 举报

0

主题

1

帖子

6

积分

新手上路

Rank: 1

积分
6
发表于 2023-1-9 16:10:30 | 显示全部楼层
谢谢楼主分享
回复 支持 反对

使用道具 举报

主题

帖子

0

积分

新手上路

Rank: 1

积分
0
发表于 2023-1-11 22:28:25 | 显示全部楼层
;;;
回复

使用道具 举报

0

主题

31

帖子

175

积分

新手上路

Rank: 1

积分
175
发表于 2023-1-15 15:47:23 | 显示全部楼层
感谢楼主分享
回复 支持 反对

使用道具 举报

0

主题

1

帖子

6

积分

新手上路

Rank: 1

积分
6
发表于 2023-1-21 16:52:06 来自手机 | 显示全部楼层
感谢分享!!!
回复

使用道具 举报

您需要登录后才可以回帖 登录 | 立即注册

本版积分规则

精彩图文
Archiver|手机版|TAG|Sitemap|新帖|专题|联系我们:邮箱: 4kjia.com@gmail.com   

4k家园   ©2019