[4K电影] 舞魂 / En corps (2022) 4K高清版本下载

  [复制链接]

主题

帖子

0

积分

超级版主

Rank: 8Rank: 8

积分
0
 楼主| 发表于 2023-1-8 19:50:54 | 显示全部楼层 |阅读模式
本帖最后由 最爱4K哟 于 2023-1-9 10:44 编辑

QQ图片20230108201139_副本.png

◎译  名 舞魂
◎片  名 En corps
◎年  代 2022
◎产  地 法国
◎类  别 剧情 / 喜剧
◎语  言 法语
◎上映日期 2022-03-30(法国)
◎IMDb评分 7.2/10 from 1742 users 更新 : 2023-01-08
◎IMDb链接 https://www.imdb.com/title/tt13531468/
◎豆瓣评分 7.9/10 from 216 更新 : 2023-01-09
◎豆瓣链接 https://movie.douban.com/subject/35358852/
◎片  长 120 分钟
◎导  演 塞德里克·克拉皮斯 Cédric Klapisch
◎编  剧 塞德里克·克拉皮斯 Cédric Klapisch / 圣地亚哥·阿米戈雷纳 Santiago Amigorena
◎演  员 马里昂·巴博 Marion Barbeau
                   皮奥·马麦 Pio Marmaï
                   弗朗索瓦·西维尔 François Civil
                   霍菲什·谢克特 Hofesh Shechter
                   德尼·波达利德斯 Denis Podalydès
                   穆里尔·罗宾 Muriel Robin
                   索海拉·雅各布 Souheila Yacoub
                   梅赫迪·巴基 Mehdi Baki
                   艾莉西亚·乔达诺 Alexia Giordano
                   罗宾森·卡萨里诺 Robinson Cassarino
                   戴米恩·查潘 Damien Chapelle
                   马里昂·戈蒂埃 de Charnacé
                   玛丽露·奥西欧 Marilou Aussilloux
                   玛蒂尔德·瓦尔尼耶 Mathilde Warnier
                   佛罗伦萨·克莱尔 Florence Clerc
                   路易斯·兰辛 Louis Lancien
                   阿加西·伯曼Agathe Berman
                   齐达内·苏阿内 Zinedine Soualem
                   范妮·萨奇 Fanny Sage
                   Jade Phan-Gia Jade Phan-Gia


◎简  介


        Elise是一位非常有前途的古典舞者,26岁时在一次演出中受伤。尽管她被告知将无法再跳舞,但她将努力在当代舞蹈中找到新的方向。
Video
ID : 1
Format : HEVC
Format/Info : High Efficiency Video Coding
Format profile : Main 10@L5@High
HDR format : SMPTE ST 2086, HDR10 compatible
Codec ID : V_MPEGH/ISO/HEVC
Duration : 1 h 57 min
Bit rate : 24.2 Mb/s
Width : 3 832 pixels
Height : 2 072 pixels
Display aspect ratio : 1.85:1
Frame rate mode : Constant
Frame rate : 24.000 FPS
Color space : YUV
Chroma subsampling : 4:2:0 (Type 2)
Bit depth : 10 bits
Bits/(Pixel*Frame) : 0.127
Stream size : 19.8 GiB (98%)
Default : Yes
Forced : No
Color range : Limited
Color primaries : BT.2020
Transfer characteristics : PQ
Matrix coefficients : BT.2020 non-constant
Mastering display color primaries : Display P3
Mastering display luminance : min: 0.0050 cd/m2, max: 1000 cd/m2
Maximum Content Light Level : 221 cd/m2
Maximum Frame-Average Light Level : 44 cd/m2

Audio
ID : 2
Format : AC-3
Format/Info : Audio Coding 3
Commercial name : Dolby Digital
Codec ID : A_AC3
Duration : 1 h 57 min
Bit rate mode : Constant
Bit rate : 384 kb/s
Channel(s) : 6 channels
Channel layout : L R C LFE Ls Rs
Sampling rate : 48.0 kHz
Frame rate : 31.250 FPS (1536 SPF)
Compression mode : Lossy
Stream size : 322 MiB (2%)
Title : French
Language : French
Service kind : Complete Main
Default : Yes
Forced : No

Text #1
ID : 3
Format : UTF-8
Codec ID : S_TEXT/UTF8
Codec ID/Info : UTF-8 Plain Text
Duration : 1 h 40 min
Bit rate : 54 b/s
Frame rate : 0.213 FPS
Count of elements : 1286
Stream size : 40.3 KiB (0%)
Language : English
Default : Yes
Forced : No

Text #2
ID : 4
Format : UTF-8
Codec ID : S_TEXT/UTF8
Codec ID/Info : UTF-8 Plain Text
Duration : 1 h 22 min
Bit rate : 5 b/s
Frame rate : 0.026 FPS
Count of elements : 131
Stream size : 3.41 KiB (0%)
Title : French (forced)
Language : French (FR)
Default : No
Forced : Yes

推荐使用qBittorrent、uTorrent、BitComet等下载软件,有条件的推荐115或会员软件下载!

下载地址

游客,如果您要查看本帖隐藏内容请回复






上一篇:房子 [简繁中字] / The House (2022) 4K高清版本下载
下一篇:完全猎魔攻略 [简繁中字] ‎ (2022) 4K高清版本下载
回复

使用道具 举报

主题

帖子

0

积分

新手上路

Rank: 1

积分
0
发表于 2023-1-9 09:50:32 | 显示全部楼层
看看AG
AG
回复

使用道具 举报

主题

帖子

0

积分

新手上路

Rank: 1

积分
0
发表于 2023-1-9 11:48:21 | 显示全部楼层
谢谢楼主分享
回复 支持 反对

使用道具 举报

0

主题

1

帖子

6

积分

新手上路

Rank: 1

积分
6
发表于 2023-1-9 13:47:10 | 显示全部楼层
huifushenmeni?
回复 支持 反对

使用道具 举报

0

主题

3

帖子

21

积分

新手上路

Rank: 1

积分
21
发表于 2023-1-9 13:49:30 | 显示全部楼层
谢谢楼主 楼主辛苦了
回复 支持 反对

使用道具 举报

0

主题

2

帖子

9

积分

新手上路

Rank: 1

积分
9
发表于 2023-1-9 23:08:14 | 显示全部楼层
谢谢楼主分享
回复 支持 反对

使用道具 举报

0

主题

3

帖子

201

积分

新手上路

Rank: 1

积分
201
发表于 2023-1-11 18:15:11 | 显示全部楼层
不錯的片子。謝謝分享。
回复 支持 反对

使用道具 举报

主题

帖子

0

积分

4K家园VIP

Rank: 9Rank: 9Rank: 9

积分
0
发表于 2023-1-12 10:56:51 | 显示全部楼层
下来 看看 音乐应该不错
回复 支持 反对

使用道具 举报

0

主题

1

帖子

6

积分

新手上路

Rank: 1

积分
6
发表于 2023-1-14 17:13:07 | 显示全部楼层
fdasfdsafdsafdsf
回复 支持 反对

使用道具 举报

0

主题

3

帖子

12

积分

新手上路

Rank: 1

积分
12
发表于 2023-1-16 01:09:43 来自手机 | 显示全部楼层
感谢楼主分享
回复 支持 反对

使用道具 举报

您需要登录后才可以回帖 登录 | 立即注册

本版积分规则

精彩图文
Archiver|手机版|TAG|Sitemap|新帖|专题|联系我们:邮箱: 4kjia.com@gmail.com   

4k家园   ©2019