[4K电影] 分手的决心 / Decision to Leave (2022) 4K高清版本下载

[复制链接]

主题

帖子

0

积分

超级版主

Rank: 8Rank: 8

积分
0
 楼主| 发表于 2023-1-11 20:15:43 | 显示全部楼层 |阅读模式
本帖最后由 最爱4K哟 于 2023-1-14 19:09 编辑

QQ图片20230111204220_副本.png

◎译  名 分手的决心/报复式分手
◎片  名 Decision to Leave
◎年  代 2022
◎产  地 韩国
◎类  别 剧情/悬疑/犯罪
◎语  言 韩语/普通话
◎字  幕 中文
◎上映日期 2022-05-23(戛纳电影节)/2022-06-29(韩国)
◎IMDb评分 7.3/10 from 24390 users 更新 : 2023-01-10
◎IMDb链接 https://www.imdb.com/title/tt13989030/
◎豆瓣评分 7.6/10 from 246413 users 更新 : 2023-01-10
◎豆瓣链接 https://movie.douban.com/subject/35342059/
◎片  长 148分钟
◎导  演 朴赞郁 Chan-wook Park
◎编  剧 郑瑞景 Seo-kyeong Jeong / 朴赞郁 Chan-wook Park
◎演  员 汤唯 Wei Tang
       朴海日 Hae-il Park
       李贞贤 Jung-hyun Lee
       高庚杓 Kyung-pyo Go
       朴勇宇 Yong-woo Park
       郑伊书 Yi-Seo Jung
       刘台午 Teo Yoo
       徐现宇 Seo Hyeon-woo
       金信英 Kim Sin-yeong
       朴正民 Jeong-min Park
       高旻示 Min-si Go
       朴赞郁 Chan-wook Park
       李美敬 Miky Lee
       曹永旭 Yeong-wook Jo
       金智龙 Ji-yong Kim
       金尚范 Sang-bum Kim
       柳星姬 Seong-hie Ryu
       金石源 Suk-won Kim

◎简  介

  在山区调查一起谋杀案的海俊(朴海日 饰)遇到了死者的妻子徐来(汤唯 饰)。“我担心他没有从山上回来,以为他最终可能会死。”徐来对丈夫的死没有表现出任何激动的迹象,并且她的行为与悲伤的亲戚大相径庭,警方认为她就是嫌疑人。当海俊审问和监视徐来时,他意识到他正在逐渐对她产生兴趣。与此同时,尽管被指控犯罪,但徐来开始对海俊采取大胆的行动。一个隐瞒真相的嫌疑人。同时想要怀疑嫌疑人的侦探。他们有了分手的决定。

◎获奖情况 (共2项)

  第75届戛纳电影节 (2022)
  主竞赛单元 金棕榈奖(提名)
   朴赞郁
  主竞赛单元 最佳导演
   朴赞郁


Video
ID : 1
Format : HEVC
Format/Info : High Efficiency Video Coding
Format profile : Main 10@L5@Main
HDR format : Dolby Vision, Version 1.0, dvhe.05.06, BL+RPU
Codec ID : V_MPEGH/ISO/HEVC
Duration : 2 h 18 min
Bit rate : 17.9 Mb/s
Width : 3 840 pixels
Height : 2 160 pixels
Display aspect ratio : 16:9
Frame rate mode : Constant
Frame rate : 24.000 FPS
Color space : YUV
Chroma subsampling : 4:2:0
Bit depth : 10 bits
Bits/(Pixel*Frame) : 0.090
Stream size : 17.3 GiB (68%)
Default : Yes
Forced : No
Color range : Full

Audio #1
ID : 2
ID in the original source medium : 4353 (0x1101)
Format : MLP FBA 16-ch
Format/Info : Meridian Lossless Packing FBA with 16-channel presentation
Commercial name : Dolby TrueHD with Dolby Atmos
Codec ID : A_TRUEHD
Duration : 2 h 18 min
Bit rate mode : Variable
Bit rate : 4 149 kb/s
Maximum bit rate : 7 002 kb/s
Channel(s) : 8 channels
Channel layout : L R C LFE Ls Rs Lb Rb
Sampling rate : 48.0 kHz
Frame rate : 1 200.000 FPS (40 SPF)
Compression mode : Lossless
Stream size : 4.01 GiB (16%)
Language : Korean
Default : Yes
Forced : No
Original source medium : Blu-ray
Number of dynamic objects : 11
Bed channel count : 1 channel
Bed channel configuration : LFE

Audio #2
ID : 3
Format : DTS XLL
Format/Info : Digital Theater Systems
Commercial name : DTS-HD Master Audio
Codec ID : A_DTS
Duration : 2 h 18 min
Bit rate mode : Variable
Bit rate : 3 843 kb/s
Channel(s) : 8 channels
Channel layout : C L R LFE Lb Rb Lss Rss
Sampling rate : 48.0 kHz
Frame rate : 93.750 FPS (512 SPF)
Bit depth : 24 bits
Compression mode : Lossless
Stream size : 3.71 GiB (15%)
Language : Korean
Default : No
Forced : No

Audio #3
ID : 4
Format : AC-3
Format/Info : Audio Coding 3
Commercial name : Dolby Digital
Format settings : Dolby Surround EX
Codec ID : A_AC3
Duration : 2 h 18 min
Bit rate mode : Constant
Bit rate : 384 kb/s
Channel(s) : 6 channels
Channel layout : L R C LFE Ls Rs
Sampling rate : 48.0 kHz
Frame rate : 31.250 FPS (1536 SPF)
Compression mode : Lossy
Delay relative to video : 30 ms
Stream size : 380 MiB (1%)
Title : Compatibility Track
Language : Korean
Service kind : Complete Main
Default : No
Forced : No

Text #1
ID : 5
Format : UTF-8
Codec ID : S_TEXT/UTF8
Codec ID/Info : UTF-8 Plain Text
Duration : 2 h 12 min
Bit rate : 44 b/s
Frame rate : 0.147 FPS
Count of elements : 1170
Stream size : 42.7 KiB (0%)
Language : English
Default : Yes
Forced : No

Text #2
ID : 6
Format : UTF-8
Codec ID : S_TEXT/UTF8
Codec ID/Info : UTF-8 Plain Text
Duration : 1 h 9 min
Bit rate : 0 b/s
Frame rate : 0.001 FPS
Count of elements : 4
Stream size : 67.0 Bytes (0%)
Language : Korean
Default : No
Forced : Yes

Text #3
ID : 7
Format : UTF-8
Codec ID : S_TEXT/UTF8
Codec ID/Info : UTF-8 Plain Text
Duration : 2 h 12 min
Bit rate : 44 b/s
Frame rate : 0.169 FPS
Count of elements : 1341
Stream size : 43.1 KiB (0%)
Language : Korean
Default : No
Forced : No

Text #4
ID : 8
Format : UTF-8
Codec ID : S_TEXT/UTF8
Codec ID/Info : UTF-8 Plain Text
Duration : 2 h 16 min
Bit rate : 69 b/s
Frame rate : 0.244 FPS
Count of elements : 2006
Stream size : 69.4 KiB (0%)
Title : SDH
Language : Korean
Default : No
Forced : No

推荐使用qBittorrent、uTorrent、BitComet等下载软件,有条件的推荐115或会员软件下载!


下载地址

游客,如果您要查看本帖隐藏内容请回复

游客,如果您要查看本帖隐藏内容请回复

游客,如果您要查看本帖隐藏内容请回复

游客,如果您要查看本帖隐藏内容请回复


相关简繁中字版本链接:分手的决心[DIY简繁中字]/Decision to Leave (2022)4K高清版本下载




上一篇:皇室造型 [简繁中字] / The Royal Treatment (2022) 4K高清版本下载
下一篇:圣诞城堡[简繁中字]/A Castle for Christmas (2021)4K高清版本下载
回复

使用道具 举报

主题

帖子

0

积分

新手上路

Rank: 1

积分
0
发表于 2023-1-11 21:36:12 | 显示全部楼层
感谢楼主分享
回复 支持 反对

使用道具 举报

0

主题

225

帖子

1010

积分

4K家园VIP

Rank: 9Rank: 9Rank: 9

积分
1010
发表于 2023-1-11 23:58:35 | 显示全部楼层
让 江小白 来看看帖子里藏了啥好东西~~~
回复 支持 反对

使用道具 举报

0

主题

2

帖子

9

积分

新手上路

Rank: 1

积分
9
发表于 2023-1-12 09:08:09 来自手机 | 显示全部楼层
想看!!!!
回复

使用道具 举报

0

主题

4

帖子

15

积分

新手上路

Rank: 1

积分
15
发表于 2023-1-12 22:59:40 | 显示全部楼层
谢谢分享!!!
回复

使用道具 举报

0

主题

2

帖子

9

积分

新手上路

Rank: 1

积分
9
发表于 2023-1-14 16:42:26 | 显示全部楼层
谢谢分享 支持支持
回复 支持 反对

使用道具 举报

您需要登录后才可以回帖 登录 | 立即注册

本版积分规则

精彩图文
Archiver|手机版|TAG|Sitemap|新帖|专题|联系我们:邮箱: 4kjia.com@gmail.com   

4k家园   ©2019