[4K电影] 黑疯婆子圣母归来 [简繁中字] (2022)4K高清版本下载

[复制链接]

主题

帖子

0

积分

超级版主

Rank: 8Rank: 8

积分
0
 楼主| 发表于 2023-1-12 11:30:36 | 显示全部楼层 |阅读模式
QQ图片20230112111850_副本.png

◎译  名 黑疯婆子圣母归来 / 黑疯婆子再掀波澜 / 欢庆归来梅迪亚
◎片  名 Tyler Perry’s A Madea Homecoming
◎年  代 2022
◎产  地 美国
◎类  别 喜剧
◎语  言 英语
◎上映日期 2022-02-25(美国)
◎IMDb评分 5.6/10 from 4101 users 更新 : 2023-01-09
◎IMDb链接 https://www.imdb.com/title/tt14813966/
◎豆瓣评分 5.6/10 from 97 users 更新 : 2023-01-12
◎豆瓣链接 https://movie.douban.com/subject/35752771/
◎片  长 105分钟
◎导  演 泰勒·派瑞 Tyler Perry
◎编  剧 泰勒·派瑞 Tyler Perry
◎演  员 泰勒·派瑞 Tyler Perry
       凯西·戴维斯 Cassi Davis
                   大卫·曼 David Mann
                   塔梅拉·曼恩 Tamela J. Mann
                   加布里埃尔·丹尼斯 Gabrielle Dennis
                   布伦丹·奥卡罗尔 Brendan O'Carroll
                   詹妮弗·吉布尼 Jennifer Gibney
                   布兰登·布莱克 Brandon Black
                   伊莎·布拉克 Isha Blaaker  
                   坎达斯·麦克斯韦 Candace Maxwell
                   日内瓦·马卡罗内 Geneva Maccarone
                   阿玛尼·阿特金森 Amani Atkinson
                   卡拉·雷伊 Karrah Raye
                   莫里斯·G·史密斯 Maurice G. Smith
                   R、 J.阿特金斯 R.J. Atkins
                   凯文·布朗 Kevin Brown
                   伊夫·B·克劳德 Yves B. Claude
                   塔拉·埃利斯 Tara Elise



◎简  介


  玛迪亚的背部是哈利路杰。在她曾孙的大学毕业典礼上,家庭剧爆发了,她并没有容忍任何无稽之谈。
Video
ID : 1
Format : HEVC
Format/Info : High Efficiency Video Coding
Format profile : Main 10@L5@Main
HDR format : SMPTE ST 2086, HDR10 compatible
Codec ID : V_MPEGH/ISO/HEVC
Duration : 1 h 45 min
Bit rate : 17.6 Mb/s
Width : 3 840 pixels
Height : 2 160 pixels
Display aspect ratio : 16:9
Frame rate mode : Constant
Frame rate : 23.976 (24000/1001) FPS
Color space : YUV
Chroma subsampling : 4:2:0 (Type 2)
Bit depth : 10 bits
Bits/(Pixel*Frame) : 0.089
Stream size : 13.0 GiB (96%)
Default : Yes
Forced : No
Color range : Limited
Color primaries : BT.2020
Transfer characteristics : PQ
Matrix coefficients : BT.2020 non-constant
Mastering display color primaries : Display P3
Mastering display luminance : min: 0.0001 cd/m2, max: 1000 cd/m2
Maximum Content Light Level : 906 cd/m2
Maximum Frame-Average Light Level : 110 cd/m2

Audio
ID : 2
Format : E-AC-3 JOC
Format/Info : Enhanced AC-3 with Joint Object Coding
Commercial name : Dolby Digital Plus with Dolby Atmos
Codec ID : A_EAC3
Duration : 1 h 47 min
Bit rate mode : Constant
Bit rate : 768 kb/s
Channel(s) : 6 channels
Channel layout : L R C LFE Ls Rs
Sampling rate : 48.0 kHz
Frame rate : 31.250 FPS (1536 SPF)
Compression mode : Lossy
Stream size : 589 MiB (4%)
Title : English
Language : English
Service kind : Complete Main
Default : No
Forced : No
Complexity index : 16
Number of dynamic objects : 15
Bed channel count : 1 channel
Bed channel configuration : LFE

Text #1
ID : 3
Format : UTF-8
Codec ID : S_TEXT/UTF8
Codec ID/Info : UTF-8 Plain Text
Duration : 1 h 44 min
Bit rate : 181 b/s
Frame rate : 0.358 FPS
Count of elements : 2252
Stream size : 140 KiB (0%)
Title : Arabic
Language : Arabic
Default : No
Forced : No

Text #2
ID : 4
Format : UTF-8
Codec ID : S_TEXT/UTF8
Codec ID/Info : UTF-8 Plain Text
Duration : 1 h 44 min
Bit rate : 107 b/s
Frame rate : 0.362 FPS
Count of elements : 2278
Stream size : 82.9 KiB (0%)
Title : 简体
Language : Chinese

Default : No
Forced : No

Text #3
ID : 5
Format : UTF-8
Codec ID : S_TEXT/UTF8
Codec ID/Info : UTF-8 Plain Text
Duration : 1 h 44 min
Bit rate : 106 b/s
Frame rate : 0.381 FPS
Count of elements : 2397
Stream size : 81.7 KiB (0%)
Title : 繁体
Language : Chinese

Default : No
Forced : No

Text #4
ID : 6
Format : UTF-8
Codec ID : S_TEXT/UTF8
Codec ID/Info : UTF-8 Plain Text
Duration : 1 h 44 min
Bit rate : 94 b/s
Frame rate : 0.342 FPS
Count of elements : 2153
Stream size : 72.3 KiB (0%)
Title : Czech
Language : Czech
Default : No
Forced : No

Text #5
ID : 7
Format : UTF-8
Codec ID : S_TEXT/UTF8
Codec ID/Info : UTF-8 Plain Text
Duration : 1 h 44 min
Bit rate : 91 b/s
Frame rate : 0.325 FPS
Count of elements : 2047
Stream size : 70.1 KiB (0%)
Title : Danish
Language : Danish
Default : No
Forced : No

Text #6
ID : 8
Format : UTF-8
Codec ID : S_TEXT/UTF8
Codec ID/Info : UTF-8 Plain Text
Duration : 1 h 44 min
Bit rate : 91 b/s
Frame rate : 0.292 FPS
Count of elements : 1841
Stream size : 70.0 KiB (0%)
Title : Dutch
Language : Dutch
Default : No
Forced : No

Text #7
ID : 9
Format : UTF-8
Codec ID : S_TEXT/UTF8
Codec ID/Info : UTF-8 Plain Text
Duration : 1 h 44 min
Bit rate : 96 b/s
Frame rate : 0.390 FPS
Count of elements : 2455
Stream size : 74.4 KiB (0%)
Title : English Philippines
Language : English (PH)
Default : No
Forced : No

Text #8
ID : 10
Format : UTF-8
Codec ID : S_TEXT/UTF8
Codec ID/Info : UTF-8 Plain Text
Duration : 1 h 44 min
Bit rate : 127 b/s
Frame rate : 0.397 FPS
Count of elements : 2497
Stream size : 97.8 KiB (0%)
Title : English [SDH]
Language : English
Default : No
Forced : No

Text #9
ID : 11
Format : UTF-8
Codec ID : S_TEXT/UTF8
Codec ID/Info : UTF-8 Plain Text
Duration : 1 h 44 min
Bit rate : 115 b/s
Frame rate : 0.370 FPS
Count of elements : 2331
Stream size : 88.7 KiB (0%)
Title : English
Language : English
Default : No
Forced : No

Text #10
ID : 12
Format : UTF-8
Codec ID : S_TEXT/UTF8
Codec ID/Info : UTF-8 Plain Text
Duration : 1 h 44 min
Bit rate : 79 b/s
Frame rate : 0.223 FPS
Count of elements : 1404
Stream size : 60.7 KiB (0%)
Title : Finnish
Language : Finnish
Default : No
Forced : No

Text #11
ID : 13
Format : UTF-8
Codec ID : S_TEXT/UTF8
Codec ID/Info : UTF-8 Plain Text
Duration : 1 h 44 min
Bit rate : 96 b/s
Frame rate : 0.353 FPS
Count of elements : 2220
Stream size : 74.5 KiB (0%)
Title : French
Language : French
Default : No
Forced : No

Text #12
ID : 14
Format : UTF-8
Codec ID : S_TEXT/UTF8
Codec ID/Info : UTF-8 Plain Text
Duration : 1 h 44 min
Bit rate : 96 b/s
Frame rate : 0.342 FPS
Count of elements : 2152
Stream size : 74.1 KiB (0%)
Title : German
Language : German
Default : No
Forced : No

Text #13
ID : 15
Format : UTF-8
Codec ID : S_TEXT/UTF8
Codec ID/Info : UTF-8 Plain Text
Duration : 1 h 44 min
Bit rate : 167 b/s
Frame rate : 0.365 FPS
Count of elements : 2299
Stream size : 129 KiB (0%)
Title : Greek
Language : Greek
Default : No
Forced : No

Text #14
ID : 16
Format : UTF-8
Codec ID : S_TEXT/UTF8
Codec ID/Info : UTF-8 Plain Text
Duration : 1 h 44 min
Bit rate : 160 b/s
Frame rate : 0.360 FPS
Count of elements : 2265
Stream size : 124 KiB (0%)
Title : Hebrew
Language : Hebrew
Default : No
Forced : No

Text #15
ID : 17
Format : UTF-8
Codec ID : S_TEXT/UTF8
Codec ID/Info : UTF-8 Plain Text
Duration : 1 h 44 min
Bit rate : 88 b/s
Frame rate : 0.362 FPS
Count of elements : 2278
Stream size : 67.8 KiB (0%)
Title : Croatian
Language : Croatian
Default : No
Forced : No

Text #16
ID : 18
Format : UTF-8
Codec ID : S_TEXT/UTF8
Codec ID/Info : UTF-8 Plain Text
Duration : 1 h 44 min
Bit rate : 96 b/s
Frame rate : 0.357 FPS
Count of elements : 2247
Stream size : 73.8 KiB (0%)
Title : Hungarian
Language : Hungarian
Default : No
Forced : No

Text #17
ID : 19
Format : UTF-8
Codec ID : S_TEXT/UTF8
Codec ID/Info : UTF-8 Plain Text
Duration : 1 h 44 min
Bit rate : 101 b/s
Frame rate : 0.360 FPS
Count of elements : 2266
Stream size : 78.4 KiB (0%)
Title : Indonesian
Language : Indonesian
Default : No
Forced : No

Text #18
ID : 20
Format : UTF-8
Codec ID : S_TEXT/UTF8
Codec ID/Info : UTF-8 Plain Text
Duration : 1 h 44 min
Bit rate : 91 b/s
Frame rate : 0.326 FPS
Count of elements : 2050
Stream size : 70.1 KiB (0%)
Title : Italian
Language : Italian
Default : No
Forced : No

Text #19
ID : 21
Format : UTF-8
Codec ID : S_TEXT/UTF8
Codec ID/Info : UTF-8 Plain Text
Duration : 1 h 44 min
Bit rate : 88 b/s
Frame rate : 0.378 FPS
Count of elements : 2380
Stream size : 68.0 KiB (0%)
Title : Japanese
Language : Japanese
Default : No
Forced : No

Text #20
ID : 22
Format : UTF-8
Codec ID : S_TEXT/UTF8
Codec ID/Info : UTF-8 Plain Text
Duration : 1 h 44 min
Bit rate : 128 b/s
Frame rate : 0.363 FPS
Count of elements : 2286
Stream size : 98.8 KiB (0%)
Title : Korean
Language : Korean
Default : No
Forced : No

Text #21
ID : 23
Format : UTF-8
Codec ID : S_TEXT/UTF8
Codec ID/Info : UTF-8 Plain Text
Duration : 1 h 44 min
Bit rate : 93 b/s
Frame rate : 0.356 FPS
Count of elements : 2238
Stream size : 71.6 KiB (0%)
Title : Malay
Language : Malay
Default : No
Forced : No

Text #22
ID : 24
Format : UTF-8
Codec ID : S_TEXT/UTF8
Codec ID/Info : UTF-8 Plain Text
Duration : 1 h 44 min
Bit rate : 86 b/s
Frame rate : 0.308 FPS
Count of elements : 1941
Stream size : 66.8 KiB (0%)
Title : Norwegian Bokmal
Language : Norwegian Bokmal
Default : No
Forced : No

Text #23
ID : 25
Format : UTF-8
Codec ID : S_TEXT/UTF8
Codec ID/Info : UTF-8 Plain Text
Duration : 1 h 44 min
Bit rate : 91 b/s
Frame rate : 0.358 FPS
Count of elements : 2254
Stream size : 70.5 KiB (0%)
Title : Polish
Language : Polish
Default : No
Forced : No

Text #24
ID : 26
Format : UTF-8
Codec ID : S_TEXT/UTF8
Codec ID/Info : UTF-8 Plain Text
Duration : 1 h 44 min
Bit rate : 95 b/s
Frame rate : 0.354 FPS
Count of elements : 2227
Stream size : 73.7 KiB (0%)
Title : Brazilian Portuguese
Language : Portuguese
Default : No
Forced : No

Text #25
ID : 27
Format : UTF-8
Codec ID : S_TEXT/UTF8
Codec ID/Info : UTF-8 Plain Text
Duration : 1 h 44 min
Bit rate : 96 b/s
Frame rate : 0.333 FPS
Count of elements : 2096
Stream size : 74.2 KiB (0%)
Title : Portuguese
Language : Portuguese
Default : No
Forced : No

Text #26
ID : 28
Format : UTF-8
Codec ID : S_TEXT/UTF8
Codec ID/Info : UTF-8 Plain Text
Duration : 1 h 44 min
Bit rate : 102 b/s
Frame rate : 0.356 FPS
Count of elements : 2239
Stream size : 79.1 KiB (0%)
Title : Romanian
Language : Romanian
Default : No
Forced : No

Text #27
ID : 29
Format : UTF-8
Codec ID : S_TEXT/UTF8
Codec ID/Info : UTF-8 Plain Text
Duration : 1 h 44 min
Bit rate : 155 b/s
Frame rate : 0.359 FPS
Count of elements : 2259
Stream size : 120 KiB (0%)
Title : Russian
Language : Russian
Default : No
Forced : No

Text #28
ID : 30
Format : UTF-8
Codec ID : S_TEXT/UTF8
Codec ID/Info : UTF-8 Plain Text
Duration : 1 h 44 min
Bit rate : 88 b/s
Frame rate : 0.379 FPS
Count of elements : 2385
Stream size : 68.0 KiB (0%)
Title : European Spanish
Language : Spanish
Default : No
Forced : No

Text #29
ID : 31
Format : UTF-8
Codec ID : S_TEXT/UTF8
Codec ID/Info : UTF-8 Plain Text
Duration : 1 h 44 min
Bit rate : 94 b/s
Frame rate : 0.352 FPS
Count of elements : 2214
Stream size : 72.7 KiB (0%)
Title : Spanish
Language : Spanish
Default : No
Forced : No

Text #30
ID : 32
Format : UTF-8
Codec ID : S_TEXT/UTF8
Codec ID/Info : UTF-8 Plain Text
Duration : 1 h 44 min
Bit rate : 93 b/s
Frame rate : 0.271 FPS
Count of elements : 1708
Stream size : 71.5 KiB (0%)
Title : Swedish
Language : Swedish
Default : No
Forced : No

Text #31
ID : 33
Format : UTF-8
Codec ID : S_TEXT/UTF8
Codec ID/Info : UTF-8 Plain Text
Duration : 1 h 44 min
Bit rate : 255 b/s
Frame rate : 0.368 FPS
Count of elements : 2319
Stream size : 197 KiB (0%)
Title : Thai
Language : Thai
Default : No
Forced : No

Text #32
ID : 34
Format : UTF-8
Codec ID : S_TEXT/UTF8
Codec ID/Info : UTF-8 Plain Text
Duration : 1 h 44 min
Bit rate : 95 b/s
Frame rate : 0.348 FPS
Count of elements : 2192
Stream size : 73.6 KiB (0%)
Title : Turkish
Language : Turkish
Default : No
Forced : No

Text #33
ID : 35
Format : UTF-8
Codec ID : S_TEXT/UTF8
Codec ID/Info : UTF-8 Plain Text
Duration : 1 h 44 min
Bit rate : 154 b/s
Frame rate : 0.369 FPS
Count of elements : 2316
Stream size : 119 KiB (0%)
Title : Ukrainian
Language : Ukrainian
Default : No
Forced : No

Text #34
ID : 36
Format : UTF-8
Codec ID : S_TEXT/UTF8
Codec ID/Info : UTF-8 Plain Text
Duration : 1 h 44 min
Bit rate : 131 b/s
Frame rate : 0.359 FPS
Count of elements : 2263
Stream size : 101 KiB (0%)
Title : Vietnamese
Language : Vietnamese
Default : No
Forced : No

推荐使用qBittorrent、uTorrent、BitComet等下载软件,有条件的推荐115或会员软件下载!

下载地址:

游客,如果您要查看本帖隐藏内容请回复
游客,如果您要查看本帖隐藏内容请回复

游客,如果您要查看本帖隐藏内容请回复



上一篇:圣诞城堡[简繁中字]/A Castle for Christmas (2021)4K高清版本下载
下一篇:见爱不怪 [简繁中字] / Alex Strangelove (2018) 4K高清版本下载
回复

使用道具 举报

您需要登录后才可以回帖 登录 | 立即注册

本版积分规则

精彩图文
Archiver|手机版|TAG|Sitemap|新帖|专题|联系我们:邮箱: 4kjia.com@gmail.com   

4k家园   ©2019