[4K电影] 第六感 [简繁中字] / The Sixth Sense (1999)4K高清版本下载

[复制链接]

主题

帖子

0

积分

超级版主

Rank: 8Rank: 8

积分
0
 楼主| 发表于 2023-1-12 13:30:29 | 显示全部楼层 |阅读模式
本帖最后由 最爱4K哟 于 2023-1-12 13:36 编辑

QQ图片20230112134143_副本.png

◎译  名 第六感 / 鬼眼(港) / 灵异第六感(台)
◎片  名 The Sixth Sense
◎年  代 1999
◎产  地 美国
◎类  别 剧情 / 悬疑 / 惊悚
◎语  言 英语 / 拉丁语 / 西班牙语
◎上映日期 1999-08-06(美国)
◎IMDb评分 8.2/10 from 994819 users 更新 : 2023-01-11
◎IMDb链接 https://www.imdb.com/title/tt0167404/
◎豆瓣评分 8.9/10 from 535059 users 更新 : 2023-01-12
◎豆瓣链接 https://movie.douban.com/subject/1297630/
◎片  长 107分钟
◎导  演 M·奈特·沙马兰 M. Night Shyamalan
◎编  剧 M·奈特·沙马兰 M. Night Shyamalan
◎演  员 布鲁斯·威利斯 Bruce Willis
       海利·乔·奥斯蒙 Haley Joel Osment
       托妮·科莱特 Toni Collette
       奥莉维亚·威廉姆斯 Olivia Williams
       唐尼·沃尔伯格 Donnie Wahlberg
       特拉沃·摩根 Trevor Morgan
       彼得·安东尼·唐伯蒂斯 Peter Anthony Tambakis
       格伦·菲茨杰拉德 Glenn Fitzgerald
       米莎·巴顿 Mischa Barton
       法尔德斯·巴姆 Firdous Bamji
       杰弗里·泽布尼斯 Jeffrey Zubernis
       安吉丽卡·托恩 Angelica Torn
       莉萨·萨默乌 Lisa Summerour
       M·奈特·沙马兰 M. Night Shyamalan
       Bruce Norris Bruce Norris
       基斯沃文德 Keith Woulard
       凯瑟琳·肯尼迪 Kathleen Kennedy
       巴里·门德尔 Barry Mendel
       Sam Mercer Sam Mercer
       詹姆斯·纽顿·霍华德 James Newton Howard
       塔克·藤本 Tak Fujimoto
       安德鲁·蒙德谢恩 Andrew Mondshein
       艾薇·考夫曼 Avy Kaufman
       道格拉斯·A·莫瓦特 Douglas A. Mowat
       乔安娜·约翰斯顿 Joanna Johnston
       邦尼·帕克尔 Bunny Parker
       Gerald Quist Gerald Quist
       安德鲁·蒙德谢恩 Andrew Mondshein
       迪安·莱特 Dean Wright
       Stephen Lawes Stephen Lawes


◎简  介


  麦克(布鲁斯·威利斯 饰)是著名儿童心理学家,却也有始终未能治愈的患者,甚至因此遭到枪击,这名少年随后也饮枪自毙。这给麦克带来很大心理阴影,一年后他找到另一个症状很像这名患者的男孩柯尔(海利·乔·奥斯蒙 饰),并耐心的做起了他的医生。柯尔并不容易接近,但麦克还是慢慢赢得 了他的信任,得知了柯尔的秘密。原来柯尔有着灵异的第六感,可以看到鬼魂。虽然这令人感到难以置信,但麦克在证实了事情的真相后还是帮助柯尔接受了这个事实。                                    
        可是就在问题即将得到解决的时候,麦克却在柯尔的引导下,发现了一个更令人震惊的秘密……

◎获奖情况 (共14项)

  第72届奥斯卡金像奖 (2000)
  最佳影片(提名)
  最佳导演(提名)
  M·奈特·沙马兰

  最佳男配角(提名)
  海利·乔·奥斯蒙

  最佳女配角(提名)
  托妮·科莱特

  最佳原创剧本(提名)
  M·奈特·沙马兰

  最佳剪辑(提名)
  安德鲁·蒙德谢恩
  第56届戛纳电影节 (2003)
  DVD Design Award

  第57届金球奖 (2000)
  电影类 最佳男配角(提名)
  海利·乔·奥斯蒙

  电影类 最佳编剧(提名)
  M·奈特·沙马兰
  第53届英国电影学院奖 (2000)
  电影奖 最佳影片(提名)

  电影奖 最佳导演(提名)
  M·奈特·沙马兰

  电影奖 最佳原创剧本(提名)
  M·奈特·沙马兰

  电影奖 最佳剪辑(提名)
  安德鲁·蒙德谢恩

  第23届日本电影学院奖 (2000)
  最佳外语片
Video
ID : 1
Format : HEVC
Format/Info : High Efficiency Video Coding
Format profile : Main 10@L5@High
HDR format : SMPTE ST 2086, HDR10 compatible
Codec ID : V_MPEGH/ISO/HEVC
Duration : 1 h 47 min
Bit rate : 15.1 Mb/s
Width : 3 840 pixels
Height : 2 160 pixels
Display aspect ratio : 16:9
Frame rate mode : Constant
Frame rate : 23.976 (24000/1001) FPS
Color space : YUV
Chroma subsampling : 4:2:0
Bit depth : 10 bits
Bits/(Pixel*Frame) : 0.076
Stream size : 11.4 GiB (84%)
Language : English
Default : Yes
Forced : No
Color range : Limited
Color primaries : BT.2020
Transfer characteristics : PQ
Matrix coefficients : BT.2020 non-constant
Mastering display color primaries : Display P3
Mastering display luminance : min: 0.0050 cd/m2, max: 1000 cd/m2

Audio #1
ID : 2
Format : DTS XLL
Format/Info : Digital Theater Systems
Commercial name : DTS-HD Master Audio
Codec ID : A_DTS
Duration : 1 h 47 min
Bit rate mode : Variable
Bit rate : 2 231 kb/s
Channel(s) : 6 channels
Channel layout : C L R Ls Rs LFE
Sampling rate : 48.0 kHz
Frame rate : 93.750 FPS (512 SPF)
Bit depth : 16 bits
Compression mode : Lossless
Stream size : 1.67 GiB (12%)
Title : DTS-HD Master Audio (USA - from LPCM) / English / 5.1 / 48 kHz / 2231 kbps / 16-bit
Language : English
Default : Yes
Forced : No

Audio #2
ID : 3
Format : AC-3
Format/Info : Audio Coding 3
Commercial name : Dolby Digital
Codec ID : A_AC3
Duration : 1 h 47 min
Bit rate mode : Constant
Bit rate : 640 kb/s
Channel(s) : 6 channels
Channel layout : L R C LFE Ls Rs
Sampling rate : 48.0 kHz
Frame rate : 31.250 FPS (1536 SPF)
Compression mode : Lossy
Stream size : 492 MiB (4%)
Language : English
Service kind : Complete Main
Default : No
Forced : No

Text #1
ID : 4
Format : UTF-8
Codec ID : S_TEXT/UTF8
Codec ID/Info : UTF-8 Plain Text
Duration : 1 h 37 min
Bit rate : 42 b/s
Frame rate : 0.147 FPS
Count of elements : 864
Stream size : 30.6 KiB (0%)
Title : British
Language : English (GB)
Default : No
Forced : No

Text #2
ID : 5
Format : UTF-8
Codec ID : S_TEXT/UTF8
Codec ID/Info : UTF-8 Plain Text
Duration : 1 h 38 min
Bit rate : 49 b/s
Frame rate : 0.167 FPS
Count of elements : 989
Stream size : 35.5 KiB (0%)
Title : British (SDH)
Language : English (GB)
Default : No
Forced : No

Text #3
ID : 6
Format : UTF-8
Codec ID : S_TEXT/UTF8
Codec ID/Info : UTF-8 Plain Text
Duration : 1 h 43 min
Bit rate : 40 b/s
Frame rate : 0.168 FPS
Count of elements : 1046
Stream size : 30.5 KiB (0%)
Title : SDH
Language : English
Default : No
Forced : No

Text #4
ID : 7
Format : UTF-8
Codec ID : S_TEXT/UTF8
Codec ID/Info : UTF-8 Plain Text
Duration : 1 h 41 min
Bit rate : 32 b/s
Frame rate : 0.134 FPS
Count of elements : 810
Stream size : 24.0 KiB (0%)
Language : Czech
Default : No
Forced : No

Text #5
ID : 8
Format : UTF-8
Codec ID : S_TEXT/UTF8
Codec ID/Info : UTF-8 Plain Text
Duration : 1 h 40 min
Bit rate : 34 b/s
Frame rate : 0.117 FPS
Count of elements : 706
Stream size : 25.3 KiB (0%)
Language : Danish
Default : No
Forced : No

Text #6
ID : 9
Format : UTF-8
Codec ID : S_TEXT/UTF8
Codec ID/Info : UTF-8 Plain Text
Duration : 1 h 38 min
Bit rate : 42 b/s
Frame rate : 0.183 FPS
Count of elements : 1085
Stream size : 30.6 KiB (0%)
Title : Latin American (SDH)
Language : Spanish (Latin America)
Default : No
Forced : No

Text #7
ID : 10
Format : UTF-8
Codec ID : S_TEXT/UTF8
Codec ID/Info : UTF-8 Plain Text
Duration : 1 h 40 min
Bit rate : 34 b/s
Frame rate : 0.146 FPS
Count of elements : 882
Stream size : 25.4 KiB (0%)
Language : Spanish (ES)
Default : No
Forced : No

Text #8
ID : 11
Format : UTF-8
Codec ID : S_TEXT/UTF8
Codec ID/Info : UTF-8 Plain Text
Duration : 1 h 45 min
Bit rate : 32 b/s
Frame rate : 0.101 FPS
Count of elements : 639
Stream size : 24.9 KiB (0%)
Language : Finnish
Default : No
Forced : No

Text #9
ID : 12
Format : UTF-8
Codec ID : S_TEXT/UTF8
Codec ID/Info : UTF-8 Plain Text
Duration : 1 h 40 min
Bit rate : 35 b/s
Frame rate : 0.135 FPS
Count of elements : 818
Stream size : 26.3 KiB (0%)
Title : Canadian
Language : French (CA)
Default : No
Forced : No

Text #10
ID : 13
Format : UTF-8
Codec ID : S_TEXT/UTF8
Codec ID/Info : UTF-8 Plain Text
Duration : 1 h 40 min
Bit rate : 35 b/s
Frame rate : 0.135 FPS
Count of elements : 820
Stream size : 26.4 KiB (0%)
Language : French (FR)
Default : No
Forced : No

Text #11
ID : 14
Format : UTF-8
Codec ID : S_TEXT/UTF8
Codec ID/Info : UTF-8 Plain Text
Duration : 1 h 41 min
Bit rate : 31 b/s
Frame rate : 0.134 FPS
Count of elements : 812
Stream size : 23.2 KiB (0%)
Language : Hungarian
Default : No
Forced : No

Text #12
ID : 15
Format : UTF-8
Codec ID : S_TEXT/UTF8
Codec ID/Info : UTF-8 Plain Text
Duration : 1 h 37 min
Bit rate : 36 b/s
Frame rate : 0.144 FPS
Count of elements : 847
Stream size : 25.8 KiB (0%)
Language : Italian
Default : No
Forced : No

Text #13
ID : 16
Format : UTF-8
Codec ID : S_TEXT/UTF8
Codec ID/Info : UTF-8 Plain Text
Duration : 1 h 37 min
Bit rate : 31 b/s
Frame rate : 0.142 FPS
Count of elements : 831
Stream size : 22.3 KiB (0%)
Language : Japanese
Default : No
Forced : No

Text #14
ID : 17
Format : UTF-8
Codec ID : S_TEXT/UTF8
Codec ID/Info : UTF-8 Plain Text
Duration : 1 h 40 min
Bit rate : 41 b/s
Frame rate : 0.146 FPS
Count of elements : 887
Stream size : 30.4 KiB (0%)
Language : Korean
Default : No
Forced : No

Text #15
ID : 18
Format : UTF-8
Codec ID : S_TEXT/UTF8
Codec ID/Info : UTF-8 Plain Text
Duration : 1 h 37 min
Bit rate : 28 b/s
Frame rate : 0.129 FPS
Count of elements : 758
Stream size : 20.5 KiB (0%)
Language : Dutch
Default : No
Forced : No

Text #16
ID : 19
Format : UTF-8
Codec ID : S_TEXT/UTF8
Codec ID/Info : UTF-8 Plain Text
Duration : 1 h 40 min
Bit rate : 33 b/s
Frame rate : 0.114 FPS
Count of elements : 688
Stream size : 25.0 KiB (0%)
Language : Norwegian
Default : No
Forced : No

Text #17
ID : 20
Format : UTF-8
Codec ID : S_TEXT/UTF8
Codec ID/Info : UTF-8 Plain Text
Duration : 1 h 41 min
Bit rate : 30 b/s
Frame rate : 0.124 FPS
Count of elements : 755
Stream size : 22.2 KiB (0%)
Language : Polish
Default : No
Forced : No

Text #18
ID : 21
Format : UTF-8
Codec ID : S_TEXT/UTF8
Codec ID/Info : UTF-8 Plain Text
Duration : 1 h 40 min
Bit rate : 35 b/s
Frame rate : 0.138 FPS
Count of elements : 836
Stream size : 26.3 KiB (0%)
Title : Brazilian
Language : Portuguese (BR)
Default : No
Forced : No

Text #19
ID : 22
Format : UTF-8
Codec ID : S_TEXT/UTF8
Codec ID/Info : UTF-8 Plain Text
Duration : 1 h 41 min
Bit rate : 34 b/s
Frame rate : 0.131 FPS
Count of elements : 798
Stream size : 25.4 KiB (0%)
Language : Portuguese (PT)
Default : No
Forced : No

Text #20
ID : 23
Format : UTF-8
Codec ID : S_TEXT/UTF8
Codec ID/Info : UTF-8 Plain Text
Duration : 1 h 40 min
Bit rate : 37 b/s
Frame rate : 0.146 FPS
Count of elements : 884
Stream size : 27.5 KiB (0%)
Language : Romanian
Default : No
Forced : No

Text #21
ID : 24
Format : UTF-8
Codec ID : S_TEXT/UTF8
Codec ID/Info : UTF-8 Plain Text
Duration : 1 h 40 min
Bit rate : 31 b/s
Frame rate : 0.103 FPS
Count of elements : 626
Stream size : 23.3 KiB (0%)
Language : Swedish
Default : No
Forced : No

Text #22
ID : 25
Format : UTF-8
Codec ID : S_TEXT/UTF8
Codec ID/Info : UTF-8 Plain Text
Duration : 1 h 37 min
Bit rate : 31 b/s
Frame rate : 0.142 FPS
Count of elements : 831
Stream size : 22.6 KiB (0%)
Language : Turkish
Default : No
Forced : No

Text #23
ID : 26
Format : UTF-8
Codec ID : S_TEXT/UTF8
Codec ID/Info : UTF-8 Plain Text
Duration : 1 h 41 min
Bit rate : 29 b/s
Frame rate : 0.153 FPS
Count of elements : 932
Stream size : 22.3 KiB (0%)
Title : Hong Kong
Language : Chinese (HK)
Default : No
Forced : No

Text #24
ID : 27
Format : UTF-8
Codec ID : S_TEXT/UTF8
Codec ID/Info : UTF-8 Plain Text
Duration : 1 h 40 min
Bit rate : 30 b/s
Frame rate : 0.146 FPS
Count of elements : 887
Stream size : 22.9 KiB (0%)
Title : 简体
Language : Chinese (Simplied)

Default : No
Forced : No

Text #25
ID : 28
Format : UTF-8
Codec ID : S_TEXT/UTF8
Codec ID/Info : UTF-8 Plain Text
Duration : 1 h 40 min
Bit rate : 30 b/s
Frame rate : 0.146 FPS
Count of elements : 886
Stream size : 22.6 KiB (0%)
Title : 繁体
Language : Chinese (Traditional)

Default : No
Forced : No

推荐使用qBittorrent、uTorrent、BitComet等下载软件,有条件的推荐115或会员软件下载!

下载地址:

游客,如果您要查看本帖隐藏内容请回复





上一篇:752不只是一个数字 / 752 is Not a Number (2022) 4K高清版本下载
下一篇:泡泡剧组 [简繁中字] / The Bubble‎ (2022) 4K高清版本下载
回复

使用道具 举报

您需要登录后才可以回帖 登录 | 立即注册

本版积分规则

精彩图文
Archiver|手机版|TAG|Sitemap|新帖|专题|联系我们:邮箱: 4kjia.com@gmail.com   

4k家园   ©2019