[4K电影] 泡泡剧组 [简繁中字] / The Bubble‎ (2022) 4K高清版本下载

[复制链接]

主题

帖子

0

积分

超级版主

Rank: 8Rank: 8

积分
0
 楼主| 发表于 2023-1-13 10:01:18 | 显示全部楼层 |阅读模式

QQ图片20230113100813_副本.png

◎译  名 泡泡剧组 / 气泡剧组(港) / 隔离区 / 泡泡
◎片  名 The Bubble
◎年  代 2022
◎产  地 美国
◎类  别 喜剧
◎语  言 英语
◎上映日期 2022-04-01(美国网络)
◎IMDb评分 4.7/10 from 24533 users 更新 : 2023-01-11
◎IMDb链接 https://www.imdb.com/title/tt13610562/
◎豆瓣评分 5.6/10 from 1794 users 更新 : 2023-01-13
◎豆瓣链接 https://movie.douban.com/subject/35410551/
◎片  长 106分钟
◎导  演 贾德·阿帕图 Judd Apatow
◎编  剧 贾德·阿帕图 Judd Apatow /  帕姆·布雷迪 Pam Brady
◎演  员 凯伦·吉兰 Karen Gillan
       艾丽斯·阿帕图 Iris Apatow
       佩德罗·帕斯卡 Pedro Pascal
       莱斯利·曼恩 Leslie Mann
       大卫·杜楚尼 David Duchovny
       科甘-迈克尔·凯 Keegan-Michael Key
       弗莱德·阿米森 Fred Armisen
       凯特·麦克金农 Kate McKinnon
       彼得·塞拉菲诺威茨 Peter Serafinowicz
       罗伯·德兰尼 Rob Delaney
       玛丽亚·巴卡洛娃 Maria Bakalova
       克里斯·维塔斯凯 Chris Witaske
       萨姆森·卡约 Samson Kayo
       唐娜·艾尔 Donna Air
       艾薇·沃尔克 Ivy Wolk
       维尔·达斯 Vir Das
       克洛伊·德拉尼 Chloé Delanney
       琳西·摩尔 Lynsey Moore


◎简  介


  这部喜剧片讲述了在疫情之下,一群男女演员被困于酒店的“泡泡”中,并试图完成一部关于飞行恐龙的动作系列片续集。

Video
ID : 1
Format : HEVC
Format/Info : High Efficiency Video Coding
Format profile : Main 10@L5@Main
Codec ID : V_MPEGH/ISO/HEVC
Duration : 2 h 6 min
Bit rate : 13.2 Mb/s
Width : 3 840 pixels
Height : 2 160 pixels
Display aspect ratio : 16:9
Frame rate mode : Constant
Frame rate : 24.000 FPS
Color space : YUV
Chroma subsampling : 4:2:0
Bit depth : 10 bits
Bits/(Pixel*Frame) : 0.066
Stream size : 11.6 GiB (94%)
Language : English
Default : Yes
Forced : No
Color range : Limited
Color primaries : BT.709
Transfer characteristics : BT.709
Matrix coefficients : BT.709

Audio
ID : 2
Format : E-AC-3 JOC
Format/Info : Enhanced AC-3 with Joint Object Coding
Commercial name : Dolby Digital Plus with Dolby Atmos
Codec ID : A_EAC3
Duration : 2 h 6 min
Bit rate mode : Constant
Bit rate : 768 kb/s
Channel(s) : 6 channels
Channel layout : L R C LFE Ls Rs
Sampling rate : 48.0 kHz
Frame rate : 31.250 FPS (1536 SPF)
Compression mode : Lossy
Stream size : 693 MiB (5%)
Language : English
Service kind : Complete Main
Default : Yes
Forced : No
Complexity index : 16
Number of dynamic objects : 15
Bed channel count : 1 channel
Bed channel configuration : LFE

Text #1
ID : 3
Format : UTF-8
Codec ID : S_TEXT/UTF8
Codec ID/Info : UTF-8 Plain Text
Duration : 2 h 3 min
Bit rate : 87 b/s
Frame rate : 0.287 FPS
Count of elements : 2120
Stream size : 78.8 KiB (0%)
Language : English
Default : No
Forced : No

Text #2
ID : 4
Format : UTF-8
Codec ID : S_TEXT/UTF8
Codec ID/Info : UTF-8 Plain Text
Duration : 2 h 3 min
Bit rate : 104 b/s
Frame rate : 0.343 FPS
Count of elements : 2547
Stream size : 94.9 KiB (0%)
Title : SDH
Language : English
Default : No
Forced : No

Text #3
ID : 5
Format : UTF-8
Codec ID : S_TEXT/UTF8
Codec ID/Info : UTF-8 Plain Text
Duration : 2 h 3 min
Bit rate : 137 b/s
Frame rate : 0.290 FPS
Count of elements : 2158
Stream size : 125 KiB (0%)
Language : Arabic
Default : No
Forced : No

Text #4
ID : 6
Format : UTF-8
Codec ID : S_TEXT/UTF8
Codec ID/Info : UTF-8 Plain Text
Duration : 2 h 3 min
Bit rate : 81 b/s
Frame rate : 0.292 FPS
Count of elements : 2171
Stream size : 73.8 KiB (0%)
Language : Czech
Default : No
Forced : No

Text #5
ID : 7
Format : UTF-8
Codec ID : S_TEXT/UTF8
Codec ID/Info : UTF-8 Plain Text
Duration : 2 h 3 min
Bit rate : 77 b/s
Frame rate : 0.271 FPS
Count of elements : 2012
Stream size : 70.4 KiB (0%)
Language : Danish
Default : No
Forced : No

Text #6
ID : 8
Format : UTF-8
Codec ID : S_TEXT/UTF8
Codec ID/Info : UTF-8 Plain Text
Duration : 2 h 3 min
Bit rate : 79 b/s
Frame rate : 0.281 FPS
Count of elements : 2091
Stream size : 72.0 KiB (0%)
Language : German
Default : No
Forced : No

Text #7
ID : 9
Format : UTF-8
Codec ID : S_TEXT/UTF8
Codec ID/Info : UTF-8 Plain Text
Duration : 2 h 3 min
Bit rate : 134 b/s
Frame rate : 0.316 FPS
Count of elements : 2349
Stream size : 122 KiB (0%)
Language : Greek
Default : No
Forced : No

Text #8
ID : 10
Format : UTF-8
Codec ID : S_TEXT/UTF8
Codec ID/Info : UTF-8 Plain Text
Duration : 2 h 3 min
Bit rate : 78 b/s
Frame rate : 0.282 FPS
Count of elements : 2098
Stream size : 71.3 KiB (0%)
Title : Latin American
Language : Spanish (Latin America)
Default : No
Forced : No

Text #9
ID : 11
Format : UTF-8
Codec ID : S_TEXT/UTF8
Codec ID/Info : UTF-8 Plain Text
Duration : 2 h 3 min
Bit rate : 76 b/s
Frame rate : 0.285 FPS
Count of elements : 2121
Stream size : 69.8 KiB (0%)
Language : Spanish (ES)
Default : No
Forced : No

Text #10
ID : 12
Format : UTF-8
Codec ID : S_TEXT/UTF8
Codec ID/Info : UTF-8 Plain Text
Duration : 2 h 3 min
Bit rate : 68 b/s
Frame rate : 0.209 FPS
Count of elements : 1550
Stream size : 62.6 KiB (0%)
Language : Finnish
Default : No
Forced : No

Text #11
ID : 13
Format : UTF-8
Codec ID : S_TEXT/UTF8
Codec ID/Info : UTF-8 Plain Text
Duration : 2 h 3 min
Bit rate : 82 b/s
Frame rate : 0.283 FPS
Count of elements : 2107
Stream size : 75.3 KiB (0%)
Language : French
Default : No
Forced : No

Text #12
ID : 14
Format : UTF-8
Codec ID : S_TEXT/UTF8
Codec ID/Info : UTF-8 Plain Text
Duration : 2 h 3 min
Bit rate : 132 b/s
Frame rate : 0.314 FPS
Count of elements : 2333
Stream size : 120 KiB (0%)
Language : Hebrew
Default : No
Forced : No

Text #13
ID : 15
Format : UTF-8
Codec ID : S_TEXT/UTF8
Codec ID/Info : UTF-8 Plain Text
Duration : 2 h 3 min
Bit rate : 71 b/s
Frame rate : 0.286 FPS
Count of elements : 2123
Stream size : 64.8 KiB (0%)
Language : Croatian
Default : No
Forced : No

Text #14
ID : 16
Format : UTF-8
Codec ID : S_TEXT/UTF8
Codec ID/Info : UTF-8 Plain Text
Duration : 2 h 3 min
Bit rate : 83 b/s
Frame rate : 0.283 FPS
Count of elements : 2102
Stream size : 75.4 KiB (0%)
Language : Hungarian
Default : No
Forced : No

Text #15
ID : 17
Format : UTF-8
Codec ID : S_TEXT/UTF8
Codec ID/Info : UTF-8 Plain Text
Duration : 2 h 3 min
Bit rate : 76 b/s
Frame rate : 0.287 FPS
Count of elements : 2134
Stream size : 69.4 KiB (0%)
Language : Indonesian
Default : No
Forced : No

Text #16
ID : 18
Format : UTF-8
Codec ID : S_TEXT/UTF8
Codec ID/Info : UTF-8 Plain Text
Duration : 2 h 3 min
Bit rate : 78 b/s
Frame rate : 0.278 FPS
Count of elements : 2066
Stream size : 71.6 KiB (0%)
Language : Italian
Default : No
Forced : No

Text #17
ID : 19
Format : UTF-8
Codec ID : S_TEXT/UTF8
Codec ID/Info : UTF-8 Plain Text
Duration : 2 h 3 min
Bit rate : 72 b/s
Frame rate : 0.308 FPS
Count of elements : 2292
Stream size : 65.3 KiB (0%)
Language : Japanese
Default : No
Forced : No

Text #18
ID : 20
Format : UTF-8
Codec ID : S_TEXT/UTF8
Codec ID/Info : UTF-8 Plain Text
Duration : 2 h 3 min
Bit rate : 103 b/s
Frame rate : 0.297 FPS
Count of elements : 2207
Stream size : 93.7 KiB (0%)
Language : Korean
Default : No
Forced : No

Text #19
ID : 21
Format : UTF-8
Codec ID : S_TEXT/UTF8
Codec ID/Info : UTF-8 Plain Text
Duration : 2 h 3 min
Bit rate : 75 b/s
Frame rate : 0.292 FPS
Count of elements : 2170
Stream size : 68.9 KiB (0%)
Language : Malay
Default : No
Forced : No

Text #20
ID : 22
Format : UTF-8
Codec ID : S_TEXT/UTF8
Codec ID/Info : UTF-8 Plain Text
Duration : 2 h 3 min
Bit rate : 81 b/s
Frame rate : 0.246 FPS
Count of elements : 1831
Stream size : 73.7 KiB (0%)
Language : Norwegian Bokmal
Default : No
Forced : No

Text #21
ID : 23
Format : UTF-8
Codec ID : S_TEXT/UTF8
Codec ID/Info : UTF-8 Plain Text
Duration : 2 h 3 min
Bit rate : 70 b/s
Frame rate : 0.249 FPS
Count of elements : 1854
Stream size : 63.8 KiB (0%)
Language : Dutch
Default : No
Forced : No

Text #22
ID : 24
Format : UTF-8
Codec ID : S_TEXT/UTF8
Codec ID/Info : UTF-8 Plain Text
Duration : 2 h 3 min
Bit rate : 74 b/s
Frame rate : 0.286 FPS
Count of elements : 2127
Stream size : 67.6 KiB (0%)
Language : Polish
Default : No
Forced : No

Text #23
ID : 25
Format : UTF-8
Codec ID : S_TEXT/UTF8
Codec ID/Info : UTF-8 Plain Text
Duration : 2 h 3 min
Bit rate : 79 b/s
Frame rate : 0.280 FPS
Count of elements : 2083
Stream size : 72.6 KiB (0%)
Title : Brazilian
Language : Portuguese (BR)
Default : No
Forced : No

Text #24
ID : 26
Format : UTF-8
Codec ID : S_TEXT/UTF8
Codec ID/Info : UTF-8 Plain Text
Duration : 2 h 3 min
Bit rate : 82 b/s
Frame rate : 0.282 FPS
Count of elements : 2096
Stream size : 74.4 KiB (0%)
Language : Portuguese (PT)
Default : No
Forced : No

Text #25
ID : 27
Format : UTF-8
Codec ID : S_TEXT/UTF8
Codec ID/Info : UTF-8 Plain Text
Duration : 2 h 3 min
Bit rate : 88 b/s
Frame rate : 0.284 FPS
Count of elements : 2112
Stream size : 80.4 KiB (0%)
Language : Romanian
Default : No
Forced : No

Text #26
ID : 28
Format : UTF-8
Codec ID : S_TEXT/UTF8
Codec ID/Info : UTF-8 Plain Text
Duration : 2 h 3 min
Bit rate : 123 b/s
Frame rate : 0.290 FPS
Count of elements : 2157
Stream size : 112 KiB (0%)
Language : Russian
Default : No
Forced : No

Text #27
ID : 29
Format : UTF-8
Codec ID : S_TEXT/UTF8
Codec ID/Info : UTF-8 Plain Text
Duration : 2 h 3 min
Bit rate : 80 b/s
Frame rate : 0.267 FPS
Count of elements : 1983
Stream size : 73.2 KiB (0%)
Language : Swedish
Default : No
Forced : No

Text #28
ID : 30
Format : UTF-8
Codec ID : S_TEXT/UTF8
Codec ID/Info : UTF-8 Plain Text
Duration : 2 h 3 min
Bit rate : 200 b/s
Frame rate : 0.291 FPS
Count of elements : 2166
Stream size : 182 KiB (0%)
Language : Thai
Default : No
Forced : No

Text #29
ID : 31
Format : UTF-8
Codec ID : S_TEXT/UTF8
Codec ID/Info : UTF-8 Plain Text
Duration : 2 h 3 min
Bit rate : 80 b/s
Frame rate : 0.287 FPS
Count of elements : 2135
Stream size : 73.3 KiB (0%)
Language : Turkish
Default : No
Forced : No

Text #30
ID : 32
Format : UTF-8
Codec ID : S_TEXT/UTF8
Codec ID/Info : UTF-8 Plain Text
Duration : 2 h 3 min
Bit rate : 124 b/s
Frame rate : 0.286 FPS
Count of elements : 2129
Stream size : 113 KiB (0%)
Language : Ukrainian
Default : No
Forced : No

Text #31
ID : 33
Format : UTF-8
Codec ID : S_TEXT/UTF8
Codec ID/Info : UTF-8 Plain Text
Duration : 2 h 3 min
Bit rate : 108 b/s
Frame rate : 0.276 FPS
Count of elements : 2048
Stream size : 98.8 KiB (0%)
Language : Vietnamese
Default : No
Forced : No

Text #32
ID : 34
Format : UTF-8
Codec ID : S_TEXT/UTF8
Codec ID/Info : UTF-8 Plain Text
Duration : 2 h 3 min
Bit rate : 89 b/s
Frame rate : 0.288 FPS
Count of elements : 2142
Stream size : 80.8 KiB (0%)
Title : 简体
Language : Chinese (Simplied)

Default : No
Forced : No

Text #33
ID : 35
Format : UTF-8
Codec ID : S_TEXT/UTF8
Codec ID/Info : UTF-8 Plain Text
Duration : 2 h 3 min
Bit rate : 83 b/s
Frame rate : 0.312 FPS
Count of elements : 2319
Stream size : 75.8 KiB (0%)
Title : 繁体
Language : Chinese (Traditional)

Default : No
Forced : No

Menu
01:58:33.000 : en:End Credits


推荐使用qBittorrent、uTorrent、BitComet等下载软件,有条件的推荐115或会员软件下载!

下载地址


游客,如果您要查看本帖隐藏内容请回复

游客,如果您要查看本帖隐藏内容请回复

游客,如果您要查看本帖隐藏内容请回复

游客,如果您要查看本帖隐藏内容请回复








上一篇:第六感 [简繁中字] / The Sixth Sense (1999)4K高清版本下载
下一篇:狩猎 / Hunt (2022) 4K高清版本下载
回复

使用道具 举报

您需要登录后才可以回帖 登录 | 立即注册

本版积分规则

精彩图文
Archiver|手机版|TAG|Sitemap|新帖|专题|联系我们:邮箱: 4kjia.com@gmail.com   

4k家园   ©2019