[4K电影] 狩猎 / Hunt (2022) 4K高清版本下载

[复制链接]

主题

帖子

0

积分

超级版主

Rank: 8Rank: 8

积分
0
 楼主| 发表于 2023-1-13 10:13:48 | 显示全部楼层 |阅读模式
QQ图片20230113101756_副本.png

◎标  题 狩猎
◎译  名 猎首密令(台) / 南山 / Hunt
◎片  名 헌트
◎年  代 2022
◎产  地 韩国
◎类  别 剧情 / 动作
◎语  言 韩语
◎上映日期 2022-05-20(戛纳电影节) / 2022-08-10(韩国)
◎IMDb评分 6.8/10 from 2447 users 更新 : 2023-01-09
◎IMDb链接 https://www.imdb.com/title/tt6931658/
◎豆瓣评分 7.7/10 from 54026 users 更新 : 2023-01-13
◎豆瓣链接 https://movie.douban.com/subject/35160926/
◎片  长 125分钟
◎导  演 李政宰 Jung-jae Lee
◎编  剧 李政宰 Jung-jae Lee
◎演  员 李政宰 Jung-jae Lee
       郑雨盛 Woo-sung Jung
       全慧珍 Hye-jin Jeon
       许成泰 Seong-tae Heo
       高允贞 Yoon Jung Go
       金钟秀 Jong-soo Kim
       郑满植 Man-shik Jeong
       陈善圭 Seon-kyu Jin
       朱智勋 Ji-hun Ju
       金南佶 Nam-gil Kim
       朴成雄 Park Sung-woong
       赵祐镇 Woo-jin Jo
       车宇振 Woo-Jin Cha
       金灿亨 Kim Chan Hyung
       李政宰 Jung-jae Lee
       韩载德 Han Jae-Deok
       曹英沃 Yeong-wook Jo
       李毛凯 Mo-gae Lee
       金尚范 Sang-bum Kim

◎简  介

  讲述国家安全企划部的两名重要官员朴平浩和金正道追捕潜伏韩国的朝鲜间谍头子揭秘惊人真相的故事。 这是李政宰转型导演的处女作。
Video
ID : 1
Format : HEVC
Format/Info : High Efficiency Video Coding
Format profile : Main 10@L5@Main
Codec ID : V_MPEGH/ISO/HEVC
Duration : 2 h 5 min
Bit rate : 11.9 Mb/s
Width : 3 840 pixels
Height : 2 160 pixels
Display aspect ratio : 16:9
Frame rate mode : Constant
Frame rate : 23.976 (24000/1001) FPS
Color space : YUV
Chroma subsampling : 4:2:0
Bit depth : 10 bits
Bits/(Pixel*Frame) : 0.060
Stream size : 10.4 GiB (95%)
Default : Yes
Forced : No
Color range : Limited
Color primaries : BT.709
Transfer characteristics : BT.709
Matrix coefficients : BT.709

Audio
ID : 2
Format : E-AC-3
Format/Info : Enhanced AC-3
Commercial name : Dolby Digital Plus
Codec ID : A_EAC3
Duration : 2 h 5 min
Bit rate mode : Constant
Bit rate : 640 kb/s
Channel(s) : 6 channels
Channel layout : L R C LFE Ls Rs
Sampling rate : 48.0 kHz
Frame rate : 31.250 FPS (1536 SPF)
Compression mode : Lossy
Stream size : 574 MiB (5%)
Language : Korean
Service kind : Complete Main
Default : Yes
Forced : No

Text #1
ID : 3
Format : UTF-8
Codec ID : S_TEXT/UTF8
Codec ID/Info : UTF-8 Plain Text
Duration : 1 h 59 min
Bit rate : 90 b/s
Frame rate : 0.279 FPS
Count of elements : 2007
Stream size : 79.3 KiB (0%)
Title : SDH
Language : Korean
Default : No
Forced : No

Text #2
ID : 4
Format : UTF-8
Codec ID : S_TEXT/UTF8
Codec ID/Info : UTF-8 Plain Text
Duration : 1 h 59 min
Bit rate : 40 b/s
Frame rate : 0.155 FPS
Count of elements : 1110
Stream size : 35.1 KiB (0%)
Language : English
Default : No
Forced : No

Text #3
ID : 5
Format : UTF-8
Codec ID : S_TEXT/UTF8
Codec ID/Info : UTF-8 Plain Text
Duration : 1 h 58 min
Bit rate : 53 b/s
Frame rate : 0.193 FPS
Count of elements : 1372
Stream size : 46.3 KiB (0%)
Language : Korean
Default : No
Forced : No

Menu
02:00:06.000 : End Credits

推荐使用qBittorrent、uTorrent、BitComet等下载软件,有条件的推荐115或会员软件下载!

下载地址

游客,如果您要查看本帖隐藏内容请回复





上一篇:泡泡剧组 [简繁中字] / The Bubble‎ (2022) 4K高清版本下载
下一篇:暮光之城3:月食 / Decision to Leave (2022) 4K高清版本下载
回复

使用道具 举报

主题

帖子

0

积分

新手上路

Rank: 1

积分
0
发表于 2023-1-13 15:27:48 | 显示全部楼层
谢谢楼主分享资源
回复 支持 反对

使用道具 举报

0

主题

31

帖子

175

积分

新手上路

Rank: 1

积分
175
发表于 2023-1-15 15:48:07 | 显示全部楼层
感谢楼主分享
回复 支持 反对

使用道具 举报

0

主题

1

帖子

6

积分

新手上路

Rank: 1

积分
6
发表于 2023-1-16 18:32:06 来自手机 | 显示全部楼层
你好,谢谢
回复

使用道具 举报

0

主题

2

帖子

9

积分

新手上路

Rank: 1

积分
9
发表于 2023-1-17 11:38:48 来自手机 | 显示全部楼层
感谢分享
回复

使用道具 举报

0

主题

1

帖子

6

积分

新手上路

Rank: 1

积分
6
发表于 2023-1-22 23:37:22 | 显示全部楼层
感谢分享
回复

使用道具 举报

0

主题

2

帖子

9

积分

新手上路

Rank: 1

积分
9
发表于 2023-1-24 03:06:05 | 显示全部楼层
感谢大佬
回复

使用道具 举报

0

主题

2

帖子

12

积分

4K家园VIP

Rank: 9Rank: 9Rank: 9

积分
12
发表于 2023-1-24 20:21:39 | 显示全部楼层
感谢~~~
回复 支持 反对

使用道具 举报

0

主题

1

帖子

6

积分

新手上路

Rank: 1

积分
6
发表于 前天 03:51 | 显示全部楼层
666666666666666666666
回复 支持 反对

使用道具 举报

您需要登录后才可以回帖 登录 | 立即注册

本版积分规则

精彩图文
Archiver|手机版|TAG|Sitemap|新帖|专题|联系我们:邮箱: 4kjia.com@gmail.com   

4k家园   ©2019