[4K电影] 暮光之城3:月食 / Decision to Leave (2022) 4K高清版本下载

[复制链接]

主题

帖子

0

积分

超级版主

Rank: 8Rank: 8

积分
0
 楼主| 发表于 2023-1-13 10:37:09 | 显示全部楼层 |阅读模式
QQ图片20230113104316_副本.png

◎译  名 暮光之城3:月食
◎片  名 The Twilight Saga: Eclipse
◎年  代 2010
◎产  地 美国
◎类  别 剧情 / 爱情 / 惊悚 / 奇幻
◎语  言 英语
◎上映日期 2010-06-30(美国)
◎IMDb评分 5.0/10 from 248633 users 更新 : 2023-01-12
◎IMDb链接 https://www.imdb.com/title/tt1325004/
◎豆瓣评分 6.8/10 from 214698 users 更新 : 2023-01-13
◎豆瓣链接 https://movie.douban.com/subject/3289086/
◎片  长 124分钟
◎导  演 大卫·斯雷德 David Slade
◎编  剧 梅莉莎·罗森伯格 Melissa Rosenberg / 斯蒂芬妮·梅耶 Stephenie Meyer
◎演  员 克里斯汀·斯图尔特 Kristen Stewart
                   罗伯特·帕丁森 Robert Pattinson
                   泰勒·洛特纳 Taylor Lautner
                   比利·伯克 Billy Burke
                   阿什丽·格林尼 Ashley Greene
                   杰克逊·拉斯波恩 Jackson Rathbone
                   妮基·瑞德 Nikki Reed
                   凯南·鲁兹 Kellan Lutz
                   伊莉莎白·里瑟 Elizabeth Reaser
                   彼得·费辛利 Peter Facinelli
                   吉尔·伯明翰 Gil Birmingham
                   克里斯蒂·瑟拉图斯 Christian Serratos
                   安娜·肯德里克 Anna Kendrick
                   祖蒂·弗兰 Jodelle Ferland
                   泽维尔·塞缪尔 Xavier Samuel
                   迈克·韦尔奇 Michael Welch


◎简  介


        贝拉(克里斯汀•斯图尔特 Kristen Stewart 饰)即将毕业,她与爱德华(罗伯特•帕丁森 Robert Pattinson 饰)在婚姻问题尚有分歧。父亲总担心女儿跟爱德华交往会吃亏,但是爱德华保守派风格令他安心。雅各布(泰勒•洛特纳 Taylor Lautner 饰)看到爱德华与贝拉依旧如胶似漆,内心十分挣扎。他感应到贝拉对自己的感觉,并私下对她示爱。在强吻遭拒后,两人不欢而散。贝拉的衣物神秘被盗,同时爱丽丝感到昔日库伦家族的维多利亚正在准备为死去的詹姆斯复仇。后者组建了一支吸血鬼新生儿军团,正在赶往此地,来势汹汹,不可不防。于是,库伦家族决定积极备战。考虑到贝拉的安全,雅各布也决定加入,昔日宿敌结盟,联手对抗外来的恶势力。然而大战在即,贝拉却还纠缠在同爱德华和雅各布的感情之间,难以抉择……
Video
ID : 1
Format : HEVC
Format/Info : High Efficiency Video Coding
Format profile : Main 10@L5@Main
HDR format : SMPTE ST 2094 App 4, Version 1, HDR10+ Profile B compatible
Codec ID : V_MPEGH/ISO/HEVC
Duration : 2 h 3 min
Bit rate : 14.7 Mb/s
Width : 3 840 pixels
Height : 1 600 pixels
Display aspect ratio : 2.40:1
Frame rate mode : Constant
Frame rate : 23.976 (24000/1001) FPS
Color space : YUV
Chroma subsampling : 4:2:0
Bit depth : 10 bits
Bits/(Pixel*Frame) : 0.100
Stream size : 12.7 GiB (75%)
Default : No
Forced : No
Color range : Limited
Color primaries : BT.2020
Transfer characteristics : PQ
Matrix coefficients : BT.2020 non-constant
Mastering display color primaries : Display P3
Mastering display luminance : min: 0.0050 cd/m2, max: 1000 cd/m2

Audio #1
ID : 2
Format : DTS XLL
Format/Info : Digital Theater Systems
Commercial name : DTS-HD Master Audio
Codec ID : A_DTS
Duration : 2 h 3 min
Bit rate mode : Variable
Bit rate : 3 996 kb/s
Channel(s) : 6 channels
Channel layout : C L R Ls Rs LFE
Sampling rate : 48.0 kHz
Frame rate : 93.750 FPS (512 SPF)
Bit depth : 24 bits
Compression mode : Lossless
Delay relative to video : 9 ms
Stream size : 3.46 GiB (20%)
Title : English
Language : English
Default : Yes
Forced : No

Audio #2
ID : 3
Format : AC-3
Format/Info : Audio Coding 3
Commercial name : Dolby Digital
Codec ID : A_AC3
Duration : 2 h 3 min
Bit rate mode : Constant
Bit rate : 640 kb/s
Channel(s) : 6 channels
Channel layout : L R C LFE Ls Rs
Sampling rate : 48.0 kHz
Frame rate : 31.250 FPS (1536 SPF)
Compression mode : Lossy
Stream size : 567 MiB (3%)
Language : English
Service kind : Complete Main
Default : No
Forced : No

Audio #3
ID : 4
Format : AC-3
Format/Info : Audio Coding 3
Commercial name : Dolby Digital
Format settings : Dolby Surround
Codec ID : A_AC3
Duration : 2 h 3 min
Bit rate mode : Constant
Bit rate : 192 kb/s
Channel(s) : 2 channels
Channel layout : L R
Sampling rate : 48.0 kHz
Frame rate : 31.250 FPS (1536 SPF)
Compression mode : Lossy
Delay relative to video : 20 ms
Stream size : 170 MiB (1%)
Title : English commentary by actors Robert Pattinson, Kristen Stewart.
Language : English
Service kind : Complete Main
Default : No
Forced : No

Audio #4
ID : 5
Format : AC-3
Format/Info : Audio Coding 3
Commercial name : Dolby Digital
Format settings : Dolby Surround
Codec ID : A_AC3
Duration : 2 h 3 min
Bit rate mode : Constant
Bit rate : 192 kb/s
Channel(s) : 2 channels
Channel layout : L R
Sampling rate : 48.0 kHz
Frame rate : 31.250 FPS (1536 SPF)
Compression mode : Lossy
Delay relative to video : 20 ms
Stream size : 170 MiB (1%)
Title : English commentary by producer Wyck Godfrey, writer (novel) Stephenie Meyer.
Language : English
Service kind : Complete Main
Default : No
Forced : No

Text #1
ID : 6
Format : UTF-8
Codec ID : S_TEXT/UTF8
Codec ID/Info : UTF-8 Plain Text
Duration : 2 h 2 min
Bit rate : 46 b/s
Frame rate : 0.192 FPS
Count of elements : 1412
Stream size : 42.1 KiB (0%)
Language : English (US)
Default : Yes
Forced : No

Text #2
ID : 7
Format : UTF-8
Codec ID : S_TEXT/UTF8
Codec ID/Info : UTF-8 Plain Text
Duration : 2 h 3 min
Bit rate : 53 b/s
Frame rate : 0.216 FPS
Count of elements : 1605
Stream size : 48.1 KiB (0%)
Title : SDH
Language : English (US)
Default : No
Forced : No

推荐使用qBittorrent、uTorrent、BitComet等下载软件,有条件的推荐115或会员软件下载!

下载地址
游客,如果您要查看本帖隐藏内容请回复





上一篇:狩猎 / Hunt (2022) 4K高清版本下载
下一篇:暮光之城2:新月/The Twilight Saga: New Moon (2009)4K高清版本下载
回复

使用道具 举报

主题

帖子

0

积分

新手上路

Rank: 1

积分
0
发表于 2023-1-13 11:56:57 | 显示全部楼层
谢谢楼主分享
回复 支持 反对

使用道具 举报

0

主题

1

帖子

6

积分

新手上路

Rank: 1

积分
6
发表于 2023-1-13 22:20:58 | 显示全部楼层
试试能不能看
回复 支持 反对

使用道具 举报

0

主题

1

帖子

6

积分

新手上路

Rank: 1

积分
6
发表于 2023-1-14 00:06:31 来自手机 | 显示全部楼层
插眼
回复

使用道具 举报

0

主题

3

帖子

12

积分

新手上路

Rank: 1

积分
12
发表于 2023-1-16 01:10:15 来自手机 | 显示全部楼层
感谢楼主分享
回复 支持 反对

使用道具 举报

您需要登录后才可以回帖 登录 | 立即注册

本版积分规则

精彩图文
Archiver|手机版|TAG|Sitemap|新帖|专题|联系我们:邮箱: 4kjia.com@gmail.com   

4k家园   ©2019