[4K电影] 暮光之城2:新月/The Twilight Saga: New Moon (2009)4K高清版本下载

[复制链接]

主题

帖子

0

积分

超级版主

Rank: 8Rank: 8

积分
0
 楼主| 发表于 2023-1-13 11:24:58 | 显示全部楼层 |阅读模式
QQ图片20230113111919_副本.png

◎译  名 暮光之城2:新月 / 暮色2:新月 / 吸血新世纪2:新月传奇(港) / 新月 / Twilight 2
◎片  名 The Twilight Saga: New Moon
◎年  代 2009
◎产  地 美国
◎类  别 剧情 / 爱情 / 惊悚 / 奇幻
◎语  言 英语
◎上映日期 2009-11-20(美国)
◎IMDb评分 4.7/10 from 287054 users 更新 : 2023-01-09
◎IMDb链接 https://www.imdb.com/title/tt1259571/
◎豆瓣评分 6.9/10 from 273770 users 更新 : 2023-01-13
◎豆瓣链接 https://movie.douban.com/subject/3148027/
◎片  长 130分钟
◎导  演 克里斯·韦兹 Chris Weitz
◎编  剧 梅莉莎·罗森伯格 Melissa Rosenberg
◎演  员 克里斯汀·斯图尔特 Kristen Stewart
                   罗伯特·帕丁森 Robert Pattinson
       泰勒·洛特纳 Taylor Lautner
       克里斯蒂娜·贾斯特泽姆布斯卡 Christina Jastrzembska
       比利·伯克 Billy Burke
       安娜·肯德里克 Anna Kendrick
       迈克·韦尔奇 Michael Welch
       贾斯汀·钱 Justin Chon
       克里斯蒂·瑟拉图斯 Christian Serratos
       阿什丽·格林尼 Ashley Greene
       杰克逊·拉斯波恩 Jackson Rathbonek
       罗塞尔·罗伯茨 Russell Roberts
       凯姆·吉甘戴 Cam Gigande
       麦克·辛 Michael Sheen
       杰米·坎贝尔·鲍尔 Jamie Campbell Bower



◎简  介

       贝拉(克里斯汀•斯图尔特 Kristen Stewart 饰)的18岁生日到了,父亲送了她礼物。爱德华(罗伯特•帕丁森 Robert Pattinson 饰)大方示爱,并为她讲述了意大利吸血鬼王族的传奇。爱德华的红发妹妹爱丽丝(阿什丽•格林尼 Ashley Greene 饰)特意为贝拉举办的生日派对,期间,贝拉无意中划伤了手臂,遭到加斯帕的袭击,靠着爱德华的庇护,才逃过一劫。不过,此后,爱德华逐渐疏远贝拉,并提出了分手。这令贝拉心寒,但爱德华也有苦衷,仍在暗中保护贝拉。贝拉处于空窗期,昔日老友雅各布(泰勒•洛特 Taylor Lautner 饰)嘘寒问暖,两人的关系也由此升温。此后,贝拉因为跳崖获救,才得知雅各布是狼人,专门对付吸血鬼。与此同时,不知情的爱德华以为贝拉自杀,心灰意冷,来到意大利请求王族结束自己的生命……
Video
ID : 1
Format : HEVC
Format/Info : High Efficiency Video Coding
Format profile : Main 10@L5@Main
HDR format : SMPTE ST 2094 App 4, Version 1, HDR10+ Profile B compatible
Codec ID : V_MPEGH/ISO/HEVC
Duration : 2 h 10 min
Bit rate : 14.7 Mb/s
Width : 3 840 pixels
Height : 1 600 pixels
Display aspect ratio : 16:9
Original display aspect ratio : 2.40:1
Frame rate mode : Constant
Frame rate : 23.976 (24000/1001) FPS
Color space : YUV
Chroma subsampling : 4:2:0
Bit depth : 10 bits
Bits/(Pixel*Frame) : 0.100
Stream size : 13.4 GiB (76%)
Default : No
Forced : No
Color range : Limited
Color primaries : BT.2020
Transfer characteristics : PQ
Matrix coefficients : BT.2020 non-constant
Mastering display color primaries : Display P3
Mastering display luminance : min: 0.0050 cd/m2, max: 1000 cd/m2
Maximum Content Light Level : 3256 cd/m2
Maximum Frame-Average Light Level : 895 cd/m2

Audio #1
ID : 2
Format : DTS XLL
Format/Info : Digital Theater Systems
Commercial name : DTS-HD Master Audio
Codec ID : A_DTS
Duration : 2 h 10 min
Bit rate mode : Variable
Bit rate : 3 884 kb/s
Channel(s) : 6 channels
Channel layout : C L R Ls Rs LFE
Sampling rate : 48.0 kHz
Frame rate : 93.750 FPS (512 SPF)
Bit depth : 24 bits
Compression mode : Lossless
Delay relative to video : 5 ms
Stream size : 3.54 GiB (20%)
Title : English
Language : English
Default : Yes
Forced : No

Audio #2
ID : 3
Format : AC-3
Format/Info : Audio Coding 3
Commercial name : Dolby Digital
Codec ID : A_AC3
Duration : 2 h 10 min
Bit rate mode : Constant
Bit rate : 640 kb/s
Channel(s) : 6 channels
Channel layout : L R C LFE Ls Rs
Sampling rate : 48.0 kHz
Frame rate : 31.250 FPS (1536 SPF)
Compression mode : Lossy
Stream size : 598 MiB (3%)
Language : English
Service kind : Complete Main
Default : No
Forced : No

Audio #3
ID : 4
Format : AC-3
Format/Info : Audio Coding 3
Commercial name : Dolby Digital
Format settings : Dolby Surround
Codec ID : A_AC3
Duration : 2 h 10 min
Bit rate mode : Constant
Bit rate : 192 kb/s
Channel(s) : 2 channels
Channel layout : L R
Sampling rate : 48.0 kHz
Frame rate : 31.250 FPS (1536 SPF)
Compression mode : Lossy
Delay relative to video : 26 ms
Stream size : 179 MiB (1%)
Title : English commentary
Language : English
Service kind : Complete Main
Default : No
Forced : No

Text #1
ID : 5
Format : UTF-8
Codec ID : S_TEXT/UTF8
Codec ID/Info : UTF-8 Plain Text
Duration : 2 h 9 min
Bit rate : 41 b/s
Frame rate : 0.188 FPS
Count of elements : 1456
Stream size : 39.7 KiB (0%)
Language : English (US)
Default : Yes
Forced : No

Text #2
ID : 6
Format : UTF-8
Codec ID : S_TEXT/UTF8
Codec ID/Info : UTF-8 Plain Text
Duration : 2 h 9 min
Bit rate : 50 b/s
Frame rate : 0.223 FPS
Count of elements : 1730
Stream size : 48.2 KiB (0%)
Title : SDH
Language : English (US)
Default : No
Forced : No

推荐使用qBittorrent、uTorrent、BitComet等下载软件,有条件的推荐115或会员软件下载!

下载地址

游客,如果您要查看本帖隐藏内容请回复







上一篇:暮光之城3:月食 / Decision to Leave (2022) 4K高清版本下载
下一篇:暮光之城4:破晓(上) (2011) 4K高清版本下载
回复

使用道具 举报

0

主题

1

帖子

6

积分

新手上路

Rank: 1

积分
6
发表于 2023-1-14 20:29:26 | 显示全部楼层
下载一个看看
回复 支持 反对

使用道具 举报

主题

帖子

0

积分

新手上路

Rank: 1

积分
0
发表于 2023-1-16 19:15:15 | 显示全部楼层
不知道 是不是原盘的
回复 支持 反对

使用道具 举报

0

主题

1

帖子

6

积分

新手上路

Rank: 1

积分
6
发表于 2023-1-17 20:49:04 | 显示全部楼层
谢谢分享
回复

使用道具 举报

您需要登录后才可以回帖 登录 | 立即注册

本版积分规则

精彩图文
Archiver|手机版|TAG|Sitemap|新帖|专题|联系我们:邮箱: 4kjia.com@gmail.com   

4k家园   ©2019