[4K电影] 暮光之城4:破晓(上) (2011) 4K高清版本下载

[复制链接]

主题

帖子

0

积分

超级版主

Rank: 8Rank: 8

积分
0
 楼主| 发表于 2023-1-13 11:59:52 | 显示全部楼层 |阅读模式
QQ图片20230113112002_副本.png

◎译  名 暮光之城4:破晓(上)
◎片  名 The Twilight Saga: Breaking Dawn - Part 1
◎年  代 2011
◎产  地 美国
◎类  别 剧情 / 爱情 / 惊悚 / 奇幻 / 冒险
◎语  言 英语
◎上映日期 2012-10-23(中国大陆) / 2011-11-18(美国)
◎IMDb评分 4.9/10 from 242979 users 更新 : 2023-01-10
◎IMDb链接 https://www.imdb.com/title/tt1324999/
◎豆瓣评分 6.9/10 from 184163 users 更新 : 2023-01-13
◎豆瓣链接 https://movie.douban.com/subject/3289081/
◎片  长 117分钟
◎导  演 比尔·康顿 Bill Condon
◎编  剧 斯蒂芬妮·梅耶 Stephenie Meyer / 梅莉莎·罗森伯格 Melissa Rosenberg
◎演  员 罗伯特·帕丁森 Robert Pattinson
                   克里斯汀·斯图尔特 Kristen Stewart
                   泰勒·洛特纳 Taylor Lautner
                   吉尔·伯明翰 Gil Birmingham
                   比利·伯克 Billy Burke
                   莎拉·克拉克 Sarah Clarke
                   泰·奥尔森 Ty Olsson
                   阿什丽·格林尼 Ashley Greene
                   杰克逊·拉斯波恩 Jackson Rathbone
                   彼得·费辛利 Peter Facinelli
                   伊丽莎白·雷瑟 Elizabeth Reaser
                   凯兰·卢茨 Kellan Lutz
                   妮基·瑞德 Nikki Reed
                   克里斯蒂安·斯隆 Christian Sloan
                   詹姆斯·皮齐纳托 James Pizzinato
                   伊恩·哈蒙 Ian Harmon
                   加布里埃尔·卡特 Gabriel Carter
                   安娜·肯德里克 Anna Kendrick



◎简  介


       本片根据美国女作家斯蒂芬妮·梅尔的畅销小说《暮光之城:破晓》改编,是该作的终结篇,由于篇幅过长被分为了上下两部。
  贝拉(克里斯汀·斯图尔特 Kristen Stewart 饰)与爱德华(罗伯特·帕丁森 Robert Pattinson 饰)历经磨难终于踏进了婚姻殿堂。婚 后爱德华和贝拉去艾思蜜岛上渡蜜月,度过了一段快乐的时光。不久贝拉发现怀孕,蜜月提前结束。狼族担心胎儿会对族人构成威胁决定除掉它。雅各布(泰勒·洛特纳 Taylor Lautner 饰)为保护贝拉离开狼族,连夜警告库伦家。胎儿生长迅速令贝拉吃尽苦头。爱德华不忍看她受苦希望她放弃孩子,但贝拉却坚持要生下。分娩当晚,贝拉大量失血,在她命悬一线之际,爱德华将装有自己吸血毒液的针管插进贝拉心脏。另一边王族也注意到了这个新生儿,一场撼动吸血鬼、狼人和人类世界的对决正悄悄来袭......

Video
ID : 1
Format : HEVC
Format/Info : High Efficiency Video Coding
Format profile : Main 10@L5@Main
HDR format : SMPTE ST 2094 App 4, Version 1, HDR10+ Profile B compatible
Codec ID : V_MPEGH/ISO/HEVC
Duration : 1 h 57 min
Bit rate : 14.9 Mb/s
Width : 3 840 pixels
Height : 1 600 pixels
Display aspect ratio : 2.40:1
Frame rate mode : Constant
Frame rate : 23.976 (24000/1001) FPS
Color space : YUV
Chroma subsampling : 4:2:0
Bit depth : 10 bits
Bits/(Pixel*Frame) : 0.101
Stream size : 12.2 GiB (84%)
Default : No
Forced : No
Color range : Limited
Color primaries : BT.2020
Transfer characteristics : PQ
Matrix coefficients : BT.2020 non-constant
Mastering display color primaries : Display P3
Mastering display luminance : min: 0.0050 cd/m2, max: 1000 cd/m2
Maximum Content Light Level : 2683 cd/m2
Maximum Frame-Average Light Level : 1317 cd/m2

Audio #1
ID : 2
Format : DTS XLL
Format/Info : Digital Theater Systems
Commercial name : DTS-HD Master Audio
Codec ID : A_DTS
Duration : 1 h 57 min
Bit rate mode : Variable
Bit rate : 2 285 kb/s
Channel(s) : 6 channels
Channel layout : C L R Ls Rs LFE
Sampling rate : 48.0 kHz
Frame rate : 93.750 FPS (512 SPF)
Bit depth : 16 bits
Compression mode : Lossless
Delay relative to video : 977 ms
Stream size : 1.87 GiB (13%)
Language : English
Default : Yes
Forced : No

Audio #2
ID : 3
Format : AC-3
Format/Info : Audio Coding 3
Commercial name : Dolby Digital
Codec ID : A_AC3
Duration : 1 h 57 min
Bit rate mode : Constant
Bit rate : 640 kb/s
Channel(s) : 6 channels
Channel layout : L R C LFE Ls Rs
Sampling rate : 48.0 kHz
Frame rate : 31.250 FPS (1536 SPF)
Compression mode : Lossy
Stream size : 536 MiB (4%)
Language : English
Service kind : Complete Main
Default : No
Forced : No

Text #1
ID : 4
Format : UTF-8
Codec ID : S_TEXT/UTF8
Codec ID/Info : UTF-8 Plain Text
Duration : 1 h 56 min
Bit rate : 33 b/s
Frame rate : 0.154 FPS
Count of elements : 1074
Stream size : 28.4 KiB (0%)
Language : English (US)
Default : Yes
Forced : No

Text #2
ID : 5
Format : UTF-8
Codec ID : S_TEXT/UTF8
Codec ID/Info : UTF-8 Plain Text
Duration : 1 h 56 min
Bit rate : 44 b/s
Frame rate : 0.193 FPS
Count of elements : 1346
Stream size : 37.6 KiB (0%)
Title : SDH
Language : English (US)
Default : No
Forced : No

推荐使用qBittorrent、uTorrent、BitComet等下载软件,有条件的推荐115或会员软件下载!

下载地址:


游客,如果您要查看本帖隐藏内容请回复





上一篇:暮光之城2:新月/The Twilight Saga: New Moon (2009)4K高清版本下载
下一篇:暮光之城4:破晓(下) (2011) 4K高清版本下载
回复

使用道具 举报

0

主题

4

帖子

28

积分

新手上路

Rank: 1

积分
28
发表于 2023-1-13 17:50:10 | 显示全部楼层
感谢分享,支持!
回复 支持 反对

使用道具 举报

0

主题

2

帖子

9

积分

新手上路

Rank: 1

积分
9
发表于 2023-1-14 16:20:27 | 显示全部楼层
好,找了很久终于找到了,太好了
回复 支持 反对

使用道具 举报

0

主题

2

帖子

9

积分

新手上路

Rank: 1

积分
9
发表于 2023-1-15 12:43:00 | 显示全部楼层
222222222222222222222
回复 支持 反对

使用道具 举报

您需要登录后才可以回帖 登录 | 立即注册

本版积分规则

精彩图文
Archiver|手机版|TAG|Sitemap|新帖|专题|联系我们:邮箱: 4kjia.com@gmail.com   

4k家园   ©2019