[4K电影] 暮光之城4:破晓(下) (2011) 4K高清版本下载

[复制链接]

主题

帖子

0

积分

超级版主

Rank: 8Rank: 8

积分
0
 楼主| 发表于 2023-1-13 12:17:11 | 显示全部楼层 |阅读模式
QQ图片20230113112133_副本.png

◎译  名 暮光之城4:破晓(下) / 暮色4:破晓(下) / 吸血新世纪4:破晓传奇下集(港) / 暮光之城:破晓II(台) / Twilight 4 - II
◎片  名 The Twilight Saga: New Moon
◎年  代 2011
◎产  地 美国
◎类  别 剧情 / 爱情 / 惊悚 / 奇幻 / 冒险
◎语  言 英语
◎上映日期 2012-11-16(美国)
◎IMDb评分 5.5/10 from 251247 users 更新 : 2023-01-09
◎IMDb链接 https://www.imdb.com/title/tt1673434/
◎豆瓣评分 7.2/10 from 171351 users 更新 : 2023-01-13
◎豆瓣链接 https://movie.douban.com/subject/4889554/
◎片  长 115分钟
◎导  演 比尔·康顿 Bill Condon
◎编  剧 斯蒂芬妮·梅耶 Stephenie Meyer
◎演  员 克里斯汀·斯图尔特 Kristen Stewart
                   罗伯特·帕丁森 Robert Pattinson                  
                   泰勒·洛特纳 Taylor Lautner
                   彼得·费辛利 Peter Facinelli
                   伊莉莎白·里瑟 Elizabeth Reaser
                   阿什丽·格林尼 Ashley Greene
                   杰克逊·拉斯波恩 Jackson Rathbone
                   妮基·瑞德 Nikki Reed
                   比利·伯克 Billy Burke
                   查斯科·斯宾塞 Chaske Spencer
                   麦肯吉·弗依 Mackenzie Foy
                   玛姬·格蕾斯 Maggie Grace
                   杰米·坎贝尔·鲍尔 Jamie Campbell Bower
                   克里斯托弗·赫耶达尔 Christopher Heyerdahl
                   麦克·辛 Michael Sheen
                   拉蒂夫·克劳德 Lateef Crowder
                   丹尼尔·库德摩尔 Daniel Cudmore
                   查理·比尤利 Charlie Bewley
                   达科塔·范宁 Dakota Fanning
                   卡梅隆·布莱特 Cameron Bright
                   安德莉亚·鲍威尔 Andrea Powell
                   玛安娜·本灵 MyAnna Buring
                   凯西·拉博 Casey LaBow
                   米娅·麦斯特罗 Mía Maestro
                   克里斯蒂安·卡玛戈 Christian Camargo


◎简  介


       在远离喧嚣的崇山峻岭之中,原始密林中央,贝拉(克里斯汀·斯图尔特Kristen Stewart 饰)与爱人爱德华(罗伯特·帕丁森 Robert Pattinson 饰)以及友人们展开难得的幸福生活。贝拉正在学习控制体内躁动的吸血鬼欲望,因为她即将面对那个她和爱人共同孕育出来的小生命蕾妮斯梅。一切都得到修复与改善,小女孩在父母长辈的呵护下快乐成长。但是她们离群索居的秘密最终被艾瑞娜(玛姬·格蕾斯 Margaret Grace 饰)窥见。
  传说吸血鬼孩童因心智不成熟容易带来难以预料的灾难,因此必须被族人残酷抹杀。听取了艾瑞娜的报告,远在意大利的沃尔图里家族渐次逼近。贝拉坚信女儿绝非血族,云集世界各地的库仑家族与狼族相继云集密林木屋,一场史无前例的战争即将展开……
Video
ID : 1
Format : HEVC
Format/Info : High Efficiency Video Coding
Format profile : Main 10@L5@Main
HDR format : SMPTE ST 2094 App 4, Version 1, HDR10+ Profile B compatible
Codec ID : V_MPEGH/ISO/HEVC
Duration : 1 h 55 min
Bit rate : 15.0 Mb/s
Width : 3 840 pixels
Height : 1 600 pixels
Display aspect ratio : 2.40:1
Frame rate mode : Constant
Frame rate : 23.976 (24000/1001) FPS
Color space : YUV
Chroma subsampling : 4:2:0
Bit depth : 10 bits
Bits/(Pixel*Frame) : 0.102
Stream size : 12.1 GiB (72%)
Default : No
Forced : No
Color range : Limited
Color primaries : BT.2020
Transfer characteristics : PQ
Matrix coefficients : BT.2020 non-constant
Mastering display color primaries : Display P3
Mastering display luminance : min: 0.0050 cd/m2, max: 1000 cd/m2
Maximum Content Light Level : 2497 cd/m2
Maximum Frame-Average Light Level : 1402 cd/m2

Audio #1
ID : 2
Format : DTS XLL
Format/Info : Digital Theater Systems
Commercial name : DTS-HD Master Audio
Codec ID : A_DTS
Duration : 1 h 55 min
Bit rate mode : Variable
Bit rate : 5 254 kb/s
Channel(s) : 8 channels
Channel layout : C L R LFE Lb Rb Lss Rss
Sampling rate : 48.0 kHz
Frame rate : 93.750 FPS (512 SPF)
Bit depth : 24 bits
Compression mode : Lossless
Delay relative to video : 9 ms
Stream size : 4.23 GiB (25%)
Language : English
Default : Yes
Forced : No

Audio #2
ID : 3
Format : AC-3
Format/Info : Audio Coding 3
Commercial name : Dolby Digital
Codec ID : A_AC3
Duration : 1 h 55 min
Bit rate mode : Constant
Bit rate : 640 kb/s
Channel(s) : 6 channels
Channel layout : L R C LFE Ls Rs
Sampling rate : 48.0 kHz
Frame rate : 31.250 FPS (1536 SPF)
Compression mode : Lossy
Stream size : 527 MiB (3%)
Language : English
Service kind : Complete Main
Default : No
Forced : No

Text #1
ID : 4
Format : UTF-8
Codec ID : S_TEXT/UTF8
Codec ID/Info : UTF-8 Plain Text
Duration : 1 h 38 min
Bit rate : 36 b/s
Frame rate : 0.171 FPS
Count of elements : 1007
Stream size : 26.5 KiB (0%)
Language : English (US)
Default : Yes
Forced : No

Text #2
ID : 5
Format : UTF-8
Codec ID : S_TEXT/UTF8
Codec ID/Info : UTF-8 Plain Text
Duration : 1 h 38 min
Bit rate : 40 b/s
Frame rate : 0.188 FPS
Count of elements : 1108
Stream size : 29.0 KiB (0%)
Title : SDH
Language : English (US)
Default : No
Forced : No

推荐使用qBittorrent、uTorrent、BitComet等下载软件,有条件的推荐115或会员软件下载!

下载地址:

游客,如果您要查看本帖隐藏内容请回复






上一篇:暮光之城4:破晓(上) (2011) 4K高清版本下载
下一篇:大病 / Sick (2022) 4K高清版本下载
回复

使用道具 举报

0

主题

4

帖子

15

积分

新手上路

Rank: 1

积分
15
发表于 2023-1-14 21:33:56 | 显示全部楼层
感谢楼主分享
回复 支持 反对

使用道具 举报

您需要登录后才可以回帖 登录 | 立即注册

本版积分规则

精彩图文
Archiver|手机版|TAG|Sitemap|新帖|专题|联系我们:邮箱: 4kjia.com@gmail.com   

4k家园   ©2019