[4K电影] 大病 / Sick (2022) 4K高清版本下载

[复制链接]

主题

帖子

0

积分

超级版主

Rank: 8Rank: 8

积分
0
 楼主| 发表于 2023-1-13 20:01:31 | 显示全部楼层 |阅读模式
本帖最后由 最爱4K哟 于 2023-1-14 19:19 编辑

QQ图片20230113194203_副本.png

◎译  名 大病
◎片  名 Sick
◎年  代 2022
◎产  地 美国
◎类  别 惊悚
◎语  言 英语
◎上映日期 2022-09-10(多伦多电影节) / 2023-01-13(美国)
◎IMDb评分 6.8/10 from 99 users 更新 : 2023-01-13
◎IMDb链接 https://www.imdb.com/title/tt14642626/
◎豆瓣评分 0/10 from 0 users
◎豆瓣链接 https://movie.douban.com/subject/35774712/
◎片  长 83分钟
◎导  演 约翰·海姆斯 John Hyams
◎编  剧 凯特琳·克雷布 Katelyn Crabb / 凯文·威廉姆森 Kevin Williamson
◎演  员 马克·门查卡 Marc Menchaca
                   简·亚当斯 Jane Adams
                   吉迪恩·阿德伦 Gideon Adlon
                   迪伦·斯派比利 Dylan Sprayberry
                   Bethlehem Million Bethlehem Million
                   查拉·博奇奇奥 Charla Bocchicchio
                   吉哈·宋 Jihae Song
                   杜安·斯蒂芬斯 Duane Stephens
                   洛根·墨菲 Logan Murphy
                   金伯利·克拉切克 Kimberlee Kraczek
                   阿利雷扎·米尔蒙塔泽里 Alireza Mirmontazeri
                   阿尔曼·图雷 Aarman Touré



◎简  介


        1965年出生,茱莉亚音乐学院毕业,主要活跃在戏剧舞台,94年的时候表演戏剧《An Inspector Calls》获得托尼奖戏剧类最佳特色女演员奖。
        之前经常在各种影视剧里面打酱油,比如《新岳父大人之三喜临门 Father of the Bride Part II》、《派克夫人的情人 Mrs. Parker and the Vicious Circle》、客串《爱情相对论Relativity》、《爱我就让我快乐 Happiness 》、《电子情书 You've Got Mail》、客串《欢乐一家亲 Frasier》里的Dr. Mel Karnofsky等。上了这部喜剧以后,就开始在大片里当小绿叶了,比如《今夜狂欢心事多 The Anniversary Party》、《橘郡男孩 Orange County》、《暖暖内含光 Eternal Sunshine of the Spotless Mind》、《雷蒙·斯尼奇的不幸历险 Lemony Snicket's A Series of Unfortunate Events 》、客串《豪斯医生》、《勇敢的人 The Brave One》等。09年他主演了一部只有2季的电视剧《大器晚成 Hung》,获得了金球奖提名和卫星奖提名。2012年的电影《天空中的所有光 All the Light in the Sky》又让她获得了纳什维尔电影节的最佳女主角奖。

Video
ID : 1
Format : HEVC
Format/Info : High Efficiency Video Coding
Format profile : Main@L5@Main
Codec ID : V_MPEGH/ISO/HEVC
Duration : 1 h 23 min
Bit rate : 14.9 Mb/s
Width : 3 840 pixels
Height : 2 160 pixels
Display aspect ratio : 16:9
Frame rate mode : Constant
Frame rate : 23.976 (24000/1001) FPS
Color space : YUV
Chroma subsampling : 4:2:0
Bit depth : 8 bits
Bits/(Pixel*Frame) : 0.075
Stream size : 8.67 GiB (99%)
Writing library : x265 3.2.1+1-b5c86a64bbbe:[Linux][GCC 7.5.0][64 bit] 8bit+10bit+12bit
Encoding settings : cpuid=1111039 / frame-threads=6 / wpp / no-pmode / no-pme / no-psnr / no-ssim / log-level=2 / input-csp=1 / input-res=3840x2160 / interlace=0 / total-frames=0 / level-idc=0 / high-tier=1 / uhd-bd=0 / ref=3 / no-allow-non-conformance / repeat-headers / annexb / no-aud / no-hrd / info / hash=0 / no-temporal-layers / no-open-gop / min-keyint=1 / keyint=48 / gop-lookahead=0 / bframes=4 / b-adapt=2 / b-pyramid / bframe-bias=0 / rc-lookahead=20 / lookahead-slices=8 / scenecut=0 / radl=0 / no-splice / no-intra-refresh / ctu=64 / min-cu-size=8 / no-rect / no-amp / max-tu-size=32 / tu-inter-depth=1 / tu-intra-depth=1 / limit-tu=0 / rdoq-level=0 / dynamic-rd=0.00 / no-ssim-rd / signhide / no-tskip / nr-intra=0 / nr-inter=0 / no-constrained-intra / strong-intra-smoothing / max-merge=3 / limit-refs=1 / no-limit-modes / me=1 / subme=2 / merange=57 / temporal-mvp / no-hme / weightp / no-weightb / no-analyze-src-pics / deblock=0:0 / sao / no-sao-non-deblock / rd=3 / selective-sao=4 / early-skip / rskip / no-fast-intra / no-tskip-fast / no-cu-lossless / b-intra / no-splitrd-skip / rdpenalty=0 / psy-rd=2.00 / psy-rdoq=0.00 / no-rd-refine / no-lossless / cbqpoffs=0 / crqpoffs=0 / rc=abr / bitrate=14984 / qcomp=0.60 / qpstep=4 / stats-write=0 / stats-read=2 / cplxblur=20.0 / qblur=0.5 / vbv-maxrate=22484 / vbv-bufsize=22484 / vbv-init=1.0 / ipratio=1.40 / pbratio=1.30 / aq-mode=2 / aq-strength=1.00 / cutree / zone-count=0 / no-strict-cbr / qg-size=32 / no-rc-grain / qpmax=69 / qpmin=0 / no-const-vbv / sar=1 / overscan=0 / videoformat=5 / range=0 / colorprim=2 / transfer=2 / colormatrix=1 / chromaloc=0 / display-window=0 / cll=0,0 / min-luma=0 / max-luma=255 / log2-max-poc-lsb=8 / vui-timing-info / vui-hrd-info / slices=1 / no-opt-qp-pps / no-opt-ref-list-length-pps / no-multi-pass-opt-rps / scenecut-bias=0.05 / no-opt-cu-delta-qp / no-aq-motion / no-hdr / no-hdr-opt / no-dhdr10-opt / no-idr-recovery-sei / analysis-reuse-level=5 / scale-factor=0 / refine-intra=0 / refine-inter=0 / refine-mv=1 / refine-ctu-distortion=0 / no-limit-sao / ctu-info=0 / no-lowpass-dct / refine-analysis-type=0 / copy-pic=1 / max-ausize-factor=1.0 / no-dynamic-refine / no-single-sei / no-hevc-aq / no-svt / no-field / qp-adaptation-range=1.00
Default : Yes
Forced : No
Color range : Limited
Matrix coefficients : BT.709

Audio
ID : 2
Format : E-AC-3
Format/Info : Enhanced AC-3
Commercial name : Dolby Digital Plus
Codec ID : A_EAC3
Duration : 1 h 23 min
Bit rate mode : Constant
Bit rate : 192 kb/s
Channel(s) : 6 channels
Channel layout : L R C LFE Ls Rs
Sampling rate : 48.0 kHz
Frame rate : 31.250 FPS (1536 SPF)
Compression mode : Lossy
Stream size : 114 MiB (1%)
Language : English
Service kind : Complete Main
Default : Yes
Forced : No

Text #1
ID : 3
Format : UTF-8
Codec ID : S_TEXT/UTF8
Codec ID/Info : UTF-8 Plain Text
Duration : 1 h 22 min
Bit rate : 34 b/s
Frame rate : 0.187 FPS
Count of elements : 922
Stream size : 20.7 KiB (0%)
Title : English
Language : English
Default : No
Forced : No

Text #2
ID : 4
Format : UTF-8
Codec ID : S_TEXT/UTF8
Codec ID/Info : UTF-8 Plain Text
Duration : 1 h 22 min
Bit rate : 41 b/s
Frame rate : 0.197 FPS
Count of elements : 970
Stream size : 24.9 KiB (0%)
Title : Spanish
Language : Spanish
Default : No
Forced : No

推荐使用qBittorrent、uTorrent、BitComet等下载软件,有条件的推荐115或会员软件下载!

下载地址:

游客,如果您要查看本帖隐藏内容请回复

游客,如果您要查看本帖隐藏内容请回复

游客,如果您要查看本帖隐藏内容请回复

游客,如果您要查看本帖隐藏内容请回复





上一篇:暮光之城4:破晓(下) (2011) 4K高清版本下载
下一篇:分手的决心[DIY简繁中字]/Decision to Leave (2022)4K高清版本下载
回复

使用道具 举报

0

主题

1

帖子

6

积分

新手上路

Rank: 1

积分
6
发表于 2023-1-14 10:30:47 | 显示全部楼层
感谢大大分享
回复 支持 反对

使用道具 举报

0

主题

1

帖子

6

积分

新手上路

Rank: 1

积分
6
发表于 2023-1-14 11:35:14 | 显示全部楼层
感谢大大分享
回复 支持 反对

使用道具 举报

主题

帖子

0

积分

新手上路

Rank: 1

积分
0
发表于 2023-1-14 13:01:10 | 显示全部楼层
感谢楼主分享
回复 支持 反对

使用道具 举报

0

主题

3

帖子

15

积分

新手上路

Rank: 1

积分
15
发表于 2023-1-14 23:55:03 | 显示全部楼层
来看看行不行
回复 支持 反对

使用道具 举报

0

主题

1

帖子

6

积分

新手上路

Rank: 1

积分
6
发表于 2023-1-16 01:51:39 | 显示全部楼层
试试看好不好看
回复 支持 反对

使用道具 举报

主题

帖子

0

积分

新手上路

Rank: 1

积分
0
发表于 2023-1-16 10:45:45 | 显示全部楼层
感谢大佬
回复

使用道具 举报

您需要登录后才可以回帖 登录 | 立即注册

本版积分规则

精彩图文
Archiver|手机版|TAG|Sitemap|新帖|专题|联系我们:邮箱: 4kjia.com@gmail.com   

4k家园   ©2019