[4K电影] 卧虎藏龙:青冥宝剑 [简繁中字] (2016) 4K高清版本下载

[复制链接]

主题

帖子

0

积分

超级版主

Rank: 8Rank: 8

积分
0
 楼主| 发表于 2023-1-17 10:50:05 | 显示全部楼层 |阅读模式
本帖最后由 最爱4K哟 于 2023-1-17 12:27 编辑

QQ图片20230117123256_副本.png

◎译  名 卧虎藏龙:青冥宝剑/卧虎藏龙2:青冥宝剑/卧虎藏龙Ⅱ青冥宝剑/铁骑银瓶
◎片  名 Crouching Tiger, Hidden Dragon:Sword of Destiny
◎年  代 2016
◎国  家 中国大陆/美国
◎类  别 剧情/动作/武侠/古装
◎语  言 汉语普通话
◎字  幕 简体中文
◎上映日期 2016-02-19(中国大陆)/2016-02-26(美国)
◎IMDb评分 6.1/10 from 19909 users 更新 : 2023-01-15
◎IMDb链接 https://www.imdb.com/title/tt2652118/
◎豆瓣评分 4.9/10 from 47784 users 更新 : 2023-01-17
◎豆瓣链接 https://movie.douban.com/subject/21327512/
◎片  长 102min
◎导  演 袁和平 Woo-ping Yuen
◎编  剧 约翰·福斯克 John Fusco / 王度庐 Dulu Wang
◎主  演 甄子丹 Donnie Yen
       杨紫琼 Michelle Yeoh
       岑勇康 Harry Shum Jr.
       刘承羽 Natasha Liu Bordizzo
       李截 Jason Scott Lee
       原丽淇 Eugenia Yuan
       吴青芸 Thanh Van Ngo
       袁之正 Roger Yuan
       陈钰芸 Juju Chan
       吴育刚 Yugang Wu
       朴云龙 Woon Young Park
       关永扬 Yongyang Guan
       克里斯·彭 Chris Pang
       张舒雅 Shuya Chang
       周小飞 Xiaofei Zhou
       吕帅 Shuai Lü

◎简  介

  武当弃徒戴阎王(李截 Jason Scott Lee 饰)为抢夺青冥古剑夜袭铁小贝勒府,俞秀莲(杨紫琼 饰)重出江湖,携手旧友孟思昭(甄子丹 饰)保护宝剑,被蒙蔽的魏方(岑勇康 Harry Shum Jr. 饰)助纣为虐,雪瓶(刘承羽 Natasha Liu Bordizzo 饰)告知魏方其身世之谜。一场江湖混战,众人力擒戴阎王,保护宝剑周全。
  影片改编自王度庐小说《铁骑银瓶》。

Video
ID : 23
Format : HEVC
Format/Info : High Efficiency Video Coding
Format profile : Main 10@L5@Main
Codec ID : V_MPEGH/ISO/HEVC
Duration : 1 h 40 min
Bit rate : 15.4 Mb/s
Width : 3 840 pixels
Height : 2 160 pixels
Display aspect ratio : 16:9
Frame rate mode : Constant
Frame rate : 23.976 (24000/1001) FPS
Color space : YUV
Chroma subsampling : 4:2:0
Bit depth : 10 bits
Bits/(Pixel*Frame) : 0.078
Stream size : 10.9 GiB (98%)
Title : English
Language : English
Default : Yes
Forced : No
Color range : Limited
Color primaries : BT.709
Transfer characteristics : BT.709
Matrix coefficients : BT.709

Audio
ID : 1
Format : AC-3
Format/Info : Audio Coding 3
Commercial name : Dolby Digital
Codec ID : A_AC3
Duration : 1 h 40 min
Bit rate mode : Constant
Bit rate : 384 kb/s
Channel(s) : 6 channels
Channel layout : L R C LFE Ls Rs
Sampling rate : 48.0 kHz
Frame rate : 31.250 FPS (1536 SPF)
Compression mode : Lossy
Stream size : 277 MiB (2%)
Language : English
Service kind : Complete Main
Default : Yes
Forced : No

Text #1
ID : 2
Format : UTF-8
Codec ID : S_TEXT/UTF8
Codec ID/Info : UTF-8 Plain Text
Duration : 1 h 28 min
Bit rate : 28 b/s
Frame rate : 0.117 FPS
Count of elements : 624
Stream size : 18.6 KiB (0%)
Language : English
Default : No
Forced : No

Text #2
ID : 3
Format : UTF-8
Codec ID : S_TEXT/UTF8
Codec ID/Info : UTF-8 Plain Text
Duration : 1 h 28 min
Bit rate : 33 b/s
Frame rate : 0.148 FPS
Count of elements : 789
Stream size : 21.7 KiB (0%)
Title : SDH
Language : English
Default : No
Forced : No

Text #3
ID : 4
Format : UTF-8
Codec ID : S_TEXT/UTF8
Codec ID/Info : UTF-8 Plain Text
Duration : 1 h 31 min
Bit rate : 45 b/s
Frame rate : 0.111 FPS
Count of elements : 608
Stream size : 30.6 KiB (0%)
Language : Arabic
Default : No
Forced : No

Text #4
ID : 5
Format : UTF-8
Codec ID : S_TEXT/UTF8
Codec ID/Info : UTF-8 Plain Text
Duration : 1 h 31 min
Bit rate : 27 b/s
Frame rate : 0.106 FPS
Count of elements : 583
Stream size : 18.2 KiB (0%)
Language : Danish
Default : No
Forced : No

Text #5
ID : 6
Format : UTF-8
Codec ID : S_TEXT/UTF8
Codec ID/Info : UTF-8 Plain Text
Duration : 1 h 31 min
Bit rate : 30 b/s
Frame rate : 0.107 FPS
Count of elements : 588
Stream size : 20.1 KiB (0%)
Language : German
Default : No
Forced : No

Text #6
ID : 7
Format : UTF-8
Codec ID : S_TEXT/UTF8
Codec ID/Info : UTF-8 Plain Text
Duration : 1 h 31 min
Bit rate : 28 b/s
Frame rate : 0.109 FPS
Count of elements : 597
Stream size : 19.0 KiB (0%)
Language : Spanish
Default : No
Forced : No

Text #7
ID : 8
Format : UTF-8
Codec ID : S_TEXT/UTF8
Codec ID/Info : UTF-8 Plain Text
Duration : 1 h 31 min
Bit rate : 28 b/s
Frame rate : 0.109 FPS
Count of elements : 595
Stream size : 19.3 KiB (0%)
Language : Spanish
Default : No
Forced : No

Text #8
ID : 9
Format : UTF-8
Codec ID : S_TEXT/UTF8
Codec ID/Info : UTF-8 Plain Text
Duration : 1 h 31 min
Bit rate : 26 b/s
Frame rate : 0.103 FPS
Count of elements : 567
Stream size : 17.5 KiB (0%)
Language : Finnish
Default : No
Forced : No

Text #9
ID : 10
Format : UTF-8
Codec ID : S_TEXT/UTF8
Codec ID/Info : UTF-8 Plain Text
Duration : 1 h 31 min
Bit rate : 29 b/s
Frame rate : 0.108 FPS
Count of elements : 593
Stream size : 20.0 KiB (0%)
Language : French
Default : No
Forced : No

Text #10
ID : 11
Format : UTF-8
Codec ID : S_TEXT/UTF8
Codec ID/Info : UTF-8 Plain Text
Duration : 1 h 31 min
Bit rate : 29 b/s
Frame rate : 0.109 FPS
Count of elements : 595
Stream size : 19.5 KiB (0%)
Language : Italian
Default : No
Forced : No

Text #11
ID : 12
Format : UTF-8
Codec ID : S_TEXT/UTF8
Codec ID/Info : UTF-8 Plain Text
Duration : 1 h 28 min
Bit rate : 27 b/s
Frame rate : 0.110 FPS
Count of elements : 587
Stream size : 17.7 KiB (0%)
Language : Japanese
Default : No
Forced : No

Text #12
ID : 13
Format : UTF-8
Codec ID : S_TEXT/UTF8
Codec ID/Info : UTF-8 Plain Text
Duration : 1 h 31 min
Bit rate : 31 b/s
Frame rate : 0.109 FPS
Count of elements : 600
Stream size : 21.0 KiB (0%)
Language : Korean
Default : No
Forced : No

Text #13
ID : 14
Format : UTF-8
Codec ID : S_TEXT/UTF8
Codec ID/Info : UTF-8 Plain Text
Duration : 1 h 31 min
Bit rate : 27 b/s
Frame rate : 0.109 FPS
Count of elements : 596
Stream size : 18.2 KiB (0%)
Language : Norwegian Bokmal
Default : No
Forced : No

Text #14
ID : 15
Format : UTF-8
Codec ID : S_TEXT/UTF8
Codec ID/Info : UTF-8 Plain Text
Duration : 1 h 31 min
Bit rate : 27 b/s
Frame rate : 0.090 FPS
Count of elements : 493
Stream size : 18.6 KiB (0%)
Language : Dutch
Default : No
Forced : No

Text #15
ID : 16
Format : UTF-8
Codec ID : S_TEXT/UTF8
Codec ID/Info : UTF-8 Plain Text
Duration : 1 h 31 min
Bit rate : 27 b/s
Frame rate : 0.107 FPS
Count of elements : 589
Stream size : 18.3 KiB (0%)
Language : Polish
Default : No
Forced : No

Text #16
ID : 17
Format : UTF-8
Codec ID : S_TEXT/UTF8
Codec ID/Info : UTF-8 Plain Text
Duration : 1 h 31 min
Bit rate : 27 b/s
Frame rate : 0.107 FPS
Count of elements : 586
Stream size : 18.4 KiB (0%)
Language : Portuguese
Default : No
Forced : No

Text #17
ID : 18
Format : UTF-8
Codec ID : S_TEXT/UTF8
Codec ID/Info : UTF-8 Plain Text
Duration : 1 h 31 min
Bit rate : 27 b/s
Frame rate : 0.109 FPS
Count of elements : 597
Stream size : 18.1 KiB (0%)
Title : Brazilian
Language : Portuguese
Default : No
Forced : No

Text #18
ID : 19
Format : UTF-8
Codec ID : S_TEXT/UTF8
Codec ID/Info : UTF-8 Plain Text
Duration : 1 h 31 min
Bit rate : 27 b/s
Frame rate : 0.099 FPS
Count of elements : 540
Stream size : 18.1 KiB (0%)
Language : Swedish
Default : No
Forced : No

Text #19
ID : 20
Format : UTF-8
Codec ID : S_TEXT/UTF8
Codec ID/Info : UTF-8 Plain Text
Duration : 1 h 31 min
Bit rate : 28 b/s
Frame rate : 0.110 FPS
Count of elements : 602
Stream size : 19.4 KiB (0%)
Language : Turkish
Default : No
Forced : No

Text #20
ID : 21
Format : UTF-8
Codec ID : S_TEXT/UTF8
Codec ID/Info : UTF-8 Plain Text
Duration : 1 h 31 min
Bit rate : 23 b/s
Frame rate : 0.109 FPS
Count of elements : 598
Stream size : 15.6 KiB (0%)
Title : 简体
Language : Chinese

Default : No
Forced : No

Text #21
ID : 22
Format : UTF-8
Codec ID : S_TEXT/UTF8
Codec ID/Info : UTF-8 Plain Text
Duration : 1 h 31 min
Bit rate : 23 b/s
Frame rate : 0.110 FPS
Count of elements : 601
Stream size : 16.0 KiB (0%)
Title : 繁体
Language : Chinese

Default : No
Forced : No

推荐使用qBittorrent、uTorrent、BitComet等下载软件,有条件的推荐115或会员软件下载!

下载地址:


游客,如果您要查看本帖隐藏内容请回复

游客,如果您要查看本帖隐藏内容请回复





上一篇:分手的决心[DIY简繁中字]/Decision to Leave (2022)4K高清版本下载
下一篇:网络炼狱:揭发N号房 [简繁中字] (2022) 4K高清版本下载
回复

使用道具 举报

主题

帖子

0

积分

新手上路

Rank: 1

积分
0
发表于 2023-1-18 12:09:52 | 显示全部楼层
谢谢楼主分享
回复 支持 反对

使用道具 举报

0

主题

2

帖子

9

积分

新手上路

Rank: 1

积分
9
发表于 2023-1-20 14:48:59 来自手机 | 显示全部楼层
赞一个啊啊啊
回复 支持 反对

使用道具 举报

0

主题

12

帖子

127

积分

新手上路

Rank: 1

积分
127
发表于 2023-1-22 20:26:24 | 显示全部楼层
回看,谢谢楼主分享
回复 支持 反对

使用道具 举报

您需要登录后才可以回帖 登录 | 立即注册

本版积分规则

精彩图文
Archiver|手机版|TAG|Sitemap|新帖|专题|联系我们:邮箱: 4kjia.com@gmail.com   

4k家园   ©2019