[4K电影] 网络炼狱:揭发N号房 [简繁中字] (2022) 4K高清版本下载

[复制链接]

主题

帖子

0

积分

超级版主

Rank: 8Rank: 8

积分
0
 楼主| 发表于 2023-1-17 11:04:56 | 显示全部楼层 |阅读模式
本帖最后由 最爱4K哟 于 2023-1-18 12:21 编辑

QQ图片20230117123349_副本.png

◎译  名 网络炼狱:揭发N号房 / 网路炼狱:揭发N号房(台) / 网络地狱:N号房现形记
◎片  名 Cyber.Hell.Exposing.an.Internet.Horror
◎年  代 2022
◎产  地 韩国
◎类  别 纪录片
◎语  言 韩语
◎上映日期 2022-05-18(韩国网络)
◎IMDb评分 6.5/10 from 1795 users 更新 : 2023-01-15
◎IMDb链接 https://www.imdb.com/title/tt19768508/
◎豆瓣评分 7.4/10 from 17647 users 更新 : 2023-01-17
◎豆瓣链接 https://movie.douban.com/subject/35874097/
◎片  长 105分钟
◎导  演 崔镇成 Jin-seong Choe
◎演  员 张恩珠 Chang Eun-jo
                   妮可·高斯 Nicole Gose
                   文贤旭 Moon Hyung-wook
                   赵菊彬 Cho Ju-bin
                   Esmée Ko Esmée Ko
                   Yeon-Seo Oh Yeon-Seo Oh
                   金万 Kim Wan



◎简  介

  在这部长篇纪录片中,导演崔镇成讲述了两名女大学生、一群记者和网络犯罪警察追捕“N 号房”(性剥削在线犯罪网络)的故事。这部电影取材于采访、档案、动画和情景重现,揭示了妇女和女孩如何被迫将自己的露骨材料上传到 Telegram 聊天室,这些聊天室的头目会用加密货币向成千上万的用户收取费用。这是一个关于该地区最具破坏性的数字犯罪的故事,数字匿名的时代让其蓬勃发展,同时受害者开始发声,誓要将其摧毁。
Video
ID : 1
Format : HEVC
Format/Info : High Efficiency Video Coding
Format profile : Main 10@L5@Main
HDR format : Dolby Vision, Version 1.0, dvhe.05.06, BL+RPU
Codec ID : V_MPEGH/ISO/HEVC
Duration : 1 h 45 min
Bit rate : 11.7 Mb/s
Width : 3 840 pixels
Height : 2 160 pixels
Display aspect ratio : 16:9
Frame rate mode : Constant
Frame rate : 23.976 (24000/1001) FPS
Color space : YUV
Chroma subsampling : 4:2:0
Bit depth : 10 bits
Bits/(Pixel*Frame) : 0.059
Stream size : 8.64 GiB (95%)
Default : Yes
Forced : No
Color range : Full

Audio
ID : 2
Format : E-AC-3
Format/Info : Enhanced AC-3
Commercial name : Dolby Digital Plus
Codec ID : A_EAC3
Duration : 1 h 45 min
Bit rate mode : Constant
Bit rate : 640 kb/s
Channel(s) : 6 channels
Channel layout : L R C LFE Ls Rs
Sampling rate : 48.0 kHz
Frame rate : 31.250 FPS (1536 SPF)
Compression mode : Lossy
Stream size : 483 MiB (5%)
Title : Korean
Language : Korean
Service kind : Complete Main
Default : Yes
Forced : No

Text #1
ID : 3
Format : UTF-8
Codec ID : S_TEXT/UTF8
Codec ID/Info : UTF-8 Plain Text
Duration : 1 h 43 min
Bit rate : 27 b/s
Frame rate : 0.101 FPS
Count of elements : 630
Stream size : 21.2 KiB (0%)
Title : Czech (Forced)
Language : Czech
Default : No
Forced : Yes

Text #2
ID : 4
Format : UTF-8
Codec ID : S_TEXT/UTF8
Codec ID/Info : UTF-8 Plain Text
Duration : 1 h 43 min
Bit rate : 28 b/s
Frame rate : 0.101 FPS
Count of elements : 629
Stream size : 21.3 KiB (0%)
Title : German (Forced)
Language : German
Default : No
Forced : Yes

Text #3
ID : 5
Format : UTF-8
Codec ID : S_TEXT/UTF8
Codec ID/Info : UTF-8 Plain Text
Duration : 1 h 43 min
Bit rate : 26 b/s
Frame rate : 0.092 FPS
Count of elements : 572
Stream size : 20.3 KiB (0%)
Title : English (Forced)
Language : English
Default : No
Forced : Yes

Text #4
ID : 6
Format : UTF-8
Codec ID : S_TEXT/UTF8
Codec ID/Info : UTF-8 Plain Text
Duration : 1 h 43 min
Bit rate : 25 b/s
Frame rate : 0.094 FPS
Count of elements : 587
Stream size : 19.3 KiB (0%)
Title : Spanish (Forced)
Language : Spanish
Default : No
Forced : Yes

Text #5
ID : 7
Format : UTF-8
Codec ID : S_TEXT/UTF8
Codec ID/Info : UTF-8 Plain Text
Duration : 1 h 43 min
Bit rate : 28 b/s
Frame rate : 0.099 FPS
Count of elements : 617
Stream size : 21.3 KiB (0%)
Title : Spanish (Forced)
Language : Spanish
Default : No
Forced : Yes

Text #6
ID : 8
Format : UTF-8
Codec ID : S_TEXT/UTF8
Codec ID/Info : UTF-8 Plain Text
Duration : 1 h 43 min
Bit rate : 27 b/s
Frame rate : 0.102 FPS
Count of elements : 634
Stream size : 20.7 KiB (0%)
Title : French (Forced)
Language : French
Default : No
Forced : Yes

Text #7
ID : 9
Format : UTF-8
Codec ID : S_TEXT/UTF8
Codec ID/Info : UTF-8 Plain Text
Duration : 1 h 43 min
Bit rate : 37 b/s
Frame rate : 0.102 FPS
Count of elements : 633
Stream size : 28.3 KiB (0%)
Title : Latin, Hindi (Forced)
Language : Hindi
Default : No
Forced : Yes

Text #8
ID : 10
Format : UTF-8
Codec ID : S_TEXT/UTF8
Codec ID/Info : UTF-8 Plain Text
Duration : 1 h 43 min
Bit rate : 29 b/s
Frame rate : 0.103 FPS
Count of elements : 639
Stream size : 22.6 KiB (0%)
Title : Hungarian (Forced)
Language : Hungarian
Default : No
Forced : Yes

Text #9
ID : 11
Format : UTF-8
Codec ID : S_TEXT/UTF8
Codec ID/Info : UTF-8 Plain Text
Duration : 1 h 43 min
Bit rate : 30 b/s
Frame rate : 0.110 FPS
Count of elements : 685
Stream size : 23.3 KiB (0%)
Title : Indonesian (Forced)
Language : Indonesian
Default : No
Forced : Yes

Text #10
ID : 12
Format : UTF-8
Codec ID : S_TEXT/UTF8
Codec ID/Info : UTF-8 Plain Text
Duration : 1 h 43 min
Bit rate : 24 b/s
Frame rate : 0.090 FPS
Count of elements : 558
Stream size : 18.7 KiB (0%)
Title : Italian (Forced)
Language : Italian
Default : No
Forced : Yes

Text #11
ID : 13
Format : UTF-8
Codec ID : S_TEXT/UTF8
Codec ID/Info : UTF-8 Plain Text
Duration : 1 h 43 min
Bit rate : 21 b/s
Frame rate : 0.068 FPS
Count of elements : 424
Stream size : 16.3 KiB (0%)
Title : Japanese (Forced)
Language : Japanese
Default : No
Forced : Yes

Text #12
ID : 14
Format : UTF-8
Codec ID : S_TEXT/UTF8
Codec ID/Info : UTF-8 Plain Text
Duration : 1 h 43 min
Bit rate : 0 b/s
Frame rate : 0.005 FPS
Count of elements : 32
Stream size : 669 Bytes (0%)
Title : Korean (Forced)
Language : Korean
Default : Yes
Forced : Yes

Text #13
ID : 15
Format : UTF-8
Codec ID : S_TEXT/UTF8
Codec ID/Info : UTF-8 Plain Text
Duration : 1 h 43 min
Bit rate : 8 b/s
Frame rate : 0.033 FPS
Count of elements : 208
Stream size : 6.09 KiB (0%)
Title : Polish (Forced)
Language : Polish
Default : No
Forced : Yes

Text #14
ID : 16
Format : UTF-8
Codec ID : S_TEXT/UTF8
Codec ID/Info : UTF-8 Plain Text
Duration : 1 h 43 min
Bit rate : 22 b/s
Frame rate : 0.084 FPS
Count of elements : 526
Stream size : 16.8 KiB (0%)
Title : Portuguese (Forced)
Language : Portuguese
Default : No
Forced : Yes

Text #15
ID : 17
Format : UTF-8
Codec ID : S_TEXT/UTF8
Codec ID/Info : UTF-8 Plain Text
Duration : 1 h 43 min
Bit rate : 46 b/s
Frame rate : 0.102 FPS
Count of elements : 634
Stream size : 35.0 KiB (0%)
Title : Russian (Forced)
Language : Russian
Default : No
Forced : Yes

Text #16
ID : 18
Format : UTF-8
Codec ID : S_TEXT/UTF8
Codec ID/Info : UTF-8 Plain Text
Duration : 1 h 43 min
Bit rate : 75 b/s
Frame rate : 0.101 FPS
Count of elements : 629
Stream size : 57.6 KiB (0%)
Title : Thai (Forced)
Language : Thai
Default : No
Forced : Yes

Text #17
ID : 19
Format : UTF-8
Codec ID : S_TEXT/UTF8
Codec ID/Info : UTF-8 Plain Text
Duration : 1 h 43 min
Bit rate : 29 b/s
Frame rate : 0.096 FPS
Count of elements : 595
Stream size : 22.5 KiB (0%)
Title : Turkish (Forced)
Language : Turkish
Default : No
Forced : Yes

Text #18
ID : 20
Format : UTF-8
Codec ID : S_TEXT/UTF8
Codec ID/Info : UTF-8 Plain Text
Duration : 1 h 43 min
Bit rate : 143 b/s
Frame rate : 0.254 FPS
Count of elements : 1583
Stream size : 109 KiB (0%)
Title : Arabic
Language : Arabic
Default : No
Forced : No

Text #19
ID : 21
Format : UTF-8
Codec ID : S_TEXT/UTF8
Codec ID/Info : UTF-8 Plain Text
Duration : 1 h 43 min
Bit rate : 81 b/s
Frame rate : 0.252 FPS
Count of elements : 1568
Stream size : 62.1 KiB (0%)
Title : Czech
Language : Czech
Default : No
Forced : No

Text #20
ID : 22
Format : UTF-8
Codec ID : S_TEXT/UTF8
Codec ID/Info : UTF-8 Plain Text
Duration : 1 h 43 min
Bit rate : 82 b/s
Frame rate : 0.251 FPS
Count of elements : 1561
Stream size : 62.5 KiB (0%)
Title : Danish
Language : Danish
Default : No
Forced : No

Text #21
ID : 23
Format : UTF-8
Codec ID : S_TEXT/UTF8
Codec ID/Info : UTF-8 Plain Text
Duration : 1 h 43 min
Bit rate : 84 b/s
Frame rate : 0.254 FPS
Count of elements : 1581
Stream size : 64.5 KiB (0%)
Title : German
Language : German
Default : No
Forced : No

Text #22
ID : 24
Format : UTF-8
Codec ID : S_TEXT/UTF8
Codec ID/Info : UTF-8 Plain Text
Duration : 1 h 43 min
Bit rate : 135 b/s
Frame rate : 0.253 FPS
Count of elements : 1572
Stream size : 103 KiB (0%)
Title : Modern Greek (1453-)
Language : Greek
Default : No
Forced : No

Text #23
ID : 25
Format : UTF-8
Codec ID : S_TEXT/UTF8
Codec ID/Info : UTF-8 Plain Text
Duration : 1 h 43 min
Bit rate : 88 b/s
Frame rate : 0.255 FPS
Count of elements : 1576
Stream size : 67.0 KiB (0%)
Title : English
Language : English
Default : No
Forced : No

Text #24
ID : 26
Format : UTF-8
Codec ID : S_TEXT/UTF8
Codec ID/Info : UTF-8 Plain Text
Duration : 1 h 43 min
Bit rate : 87 b/s
Frame rate : 0.245 FPS
Count of elements : 1524
Stream size : 66.4 KiB (0%)
Title : English
Language : English
Default : No
Forced : No

Text #25
ID : 27
Format : UTF-8
Codec ID : S_TEXT/UTF8
Codec ID/Info : UTF-8 Plain Text
Duration : 1 h 43 min
Bit rate : 90 b/s
Frame rate : 0.257 FPS
Count of elements : 1593
Stream size : 68.5 KiB (0%)
Title : English (SDH)
Language : English
Default : No
Forced : No

Text #26
ID : 28
Format : UTF-8
Codec ID : S_TEXT/UTF8
Codec ID/Info : UTF-8 Plain Text
Duration : 1 h 43 min
Bit rate : 86 b/s
Frame rate : 0.253 FPS
Count of elements : 1575
Stream size : 65.6 KiB (0%)
Title : Spanish
Language : Spanish
Default : No
Forced : No

Text #27
ID : 29
Format : UTF-8
Codec ID : S_TEXT/UTF8
Codec ID/Info : UTF-8 Plain Text
Duration : 1 h 43 min
Bit rate : 82 b/s
Frame rate : 0.249 FPS
Count of elements : 1551
Stream size : 62.7 KiB (0%)
Title : Spanish
Language : Spanish
Default : No
Forced : No

Text #28
ID : 30
Format : UTF-8
Codec ID : S_TEXT/UTF8
Codec ID/Info : UTF-8 Plain Text
Duration : 1 h 43 min
Bit rate : 83 b/s
Frame rate : 0.249 FPS
Count of elements : 1553
Stream size : 63.4 KiB (0%)
Title : Finnish
Language : Finnish
Default : No
Forced : No

Text #29
ID : 31
Format : UTF-8
Codec ID : S_TEXT/UTF8
Codec ID/Info : UTF-8 Plain Text
Duration : 1 h 43 min
Bit rate : 82 b/s
Frame rate : 0.251 FPS
Count of elements : 1563
Stream size : 63.0 KiB (0%)
Title : French
Language : French
Default : No
Forced : No

Text #30
ID : 32
Format : UTF-8
Codec ID : S_TEXT/UTF8
Codec ID/Info : UTF-8 Plain Text
Duration : 1 h 43 min
Bit rate : 126 b/s
Frame rate : 0.254 FPS
Count of elements : 1579
Stream size : 96.1 KiB (0%)
Title : Hebrew
Language : Hebrew
Default : No
Forced : No

Text #31
ID : 33
Format : UTF-8
Codec ID : S_TEXT/UTF8
Codec ID/Info : UTF-8 Plain Text
Duration : 1 h 43 min
Bit rate : 78 b/s
Frame rate : 0.250 FPS
Count of elements : 1554
Stream size : 59.3 KiB (0%)
Title : Croatian
Language : Croatian
Default : No
Forced : No

Text #32
ID : 34
Format : UTF-8
Codec ID : S_TEXT/UTF8
Codec ID/Info : UTF-8 Plain Text
Duration : 1 h 43 min
Bit rate : 89 b/s
Frame rate : 0.252 FPS
Count of elements : 1570
Stream size : 67.7 KiB (0%)
Title : Hungarian
Language : Hungarian
Default : No
Forced : No

Text #33
ID : 35
Format : UTF-8
Codec ID : S_TEXT/UTF8
Codec ID/Info : UTF-8 Plain Text
Duration : 1 h 43 min
Bit rate : 86 b/s
Frame rate : 0.251 FPS
Count of elements : 1561
Stream size : 65.5 KiB (0%)
Title : Indonesian
Language : Indonesian
Default : No
Forced : No

Text #34
ID : 36
Format : UTF-8
Codec ID : S_TEXT/UTF8
Codec ID/Info : UTF-8 Plain Text
Duration : 1 h 43 min
Bit rate : 84 b/s
Frame rate : 0.249 FPS
Count of elements : 1553
Stream size : 64.3 KiB (0%)
Title : Italian
Language : Italian
Default : No
Forced : No

Text #35
ID : 37
Format : UTF-8
Codec ID : S_TEXT/UTF8
Codec ID/Info : UTF-8 Plain Text
Duration : 1 h 43 min
Bit rate : 93 b/s
Frame rate : 0.240 FPS
Count of elements : 1494
Stream size : 71.1 KiB (0%)
Title : Japanese
Language : Japanese
Default : No
Forced : No

Text #36
ID : 38
Format : UTF-8
Codec ID : S_TEXT/UTF8
Codec ID/Info : UTF-8 Plain Text
Duration : 1 h 43 min
Bit rate : 101 b/s
Frame rate : 0.258 FPS
Count of elements : 1604
Stream size : 76.7 KiB (0%)
Title : Korean (SDH)
Language : Korean
Default : No
Forced : No

Text #37
ID : 39
Format : UTF-8
Codec ID : S_TEXT/UTF8
Codec ID/Info : UTF-8 Plain Text
Duration : 1 h 43 min
Bit rate : 85 b/s
Frame rate : 0.250 FPS
Count of elements : 1557
Stream size : 65.1 KiB (0%)
Title : Malay (macrolanguage)
Language : Malay
Default : No
Forced : No

Text #38
ID : 40
Format : UTF-8
Codec ID : S_TEXT/UTF8
Codec ID/Info : UTF-8 Plain Text
Duration : 1 h 43 min
Bit rate : 80 b/s
Frame rate : 0.249 FPS
Count of elements : 1549
Stream size : 61.0 KiB (0%)
Title : Norwegian Bokmål
Language : Norwegian Bokmal
Default : No
Forced : No

Text #39
ID : 41
Format : UTF-8
Codec ID : S_TEXT/UTF8
Codec ID/Info : UTF-8 Plain Text
Duration : 1 h 43 min
Bit rate : 82 b/s
Frame rate : 0.239 FPS
Count of elements : 1489
Stream size : 62.5 KiB (0%)
Title : Dutch
Language : Dutch
Default : No
Forced : No

Text #40
ID : 42
Format : UTF-8
Codec ID : S_TEXT/UTF8
Codec ID/Info : UTF-8 Plain Text
Duration : 1 h 43 min
Bit rate : 81 b/s
Frame rate : 0.251 FPS
Count of elements : 1565
Stream size : 62.0 KiB (0%)
Title : Polish
Language : Polish
Default : No
Forced : No

Text #41
ID : 43
Format : UTF-8
Codec ID : S_TEXT/UTF8
Codec ID/Info : UTF-8 Plain Text
Duration : 1 h 43 min
Bit rate : 79 b/s
Frame rate : 0.250 FPS
Count of elements : 1556
Stream size : 60.1 KiB (0%)
Title : Portuguese
Language : Portuguese
Default : No
Forced : No

Text #42
ID : 44
Format : UTF-8
Codec ID : S_TEXT/UTF8
Codec ID/Info : UTF-8 Plain Text
Duration : 1 h 43 min
Bit rate : 80 b/s
Frame rate : 0.251 FPS
Count of elements : 1561
Stream size : 61.5 KiB (0%)
Title : Portuguese
Language : Portuguese
Default : No
Forced : No

Text #43
ID : 45
Format : UTF-8
Codec ID : S_TEXT/UTF8
Codec ID/Info : UTF-8 Plain Text
Duration : 1 h 43 min
Bit rate : 90 b/s
Frame rate : 0.251 FPS
Count of elements : 1562
Stream size : 68.9 KiB (0%)
Title : Romanian
Language : Romanian
Default : No
Forced : No

Text #44
ID : 46
Format : UTF-8
Codec ID : S_TEXT/UTF8
Codec ID/Info : UTF-8 Plain Text
Duration : 1 h 43 min
Bit rate : 139 b/s
Frame rate : 0.253 FPS
Count of elements : 1572
Stream size : 106 KiB (0%)
Title : Russian
Language : Russian
Default : No
Forced : No

Text #45
ID : 47
Format : UTF-8
Codec ID : S_TEXT/UTF8
Codec ID/Info : UTF-8 Plain Text
Duration : 1 h 43 min
Bit rate : 81 b/s
Frame rate : 0.253 FPS
Count of elements : 1574
Stream size : 61.8 KiB (0%)
Title : Swedish
Language : Swedish
Default : No
Forced : No

Text #46
ID : 48
Format : UTF-8
Codec ID : S_TEXT/UTF8
Codec ID/Info : UTF-8 Plain Text
Duration : 1 h 43 min
Bit rate : 225 b/s
Frame rate : 0.255 FPS
Count of elements : 1588
Stream size : 172 KiB (0%)
Title : Thai
Language : Thai
Default : No
Forced : No

Text #47
ID : 49
Format : UTF-8
Codec ID : S_TEXT/UTF8
Codec ID/Info : UTF-8 Plain Text
Duration : 1 h 43 min
Bit rate : 89 b/s
Frame rate : 0.252 FPS
Count of elements : 1567
Stream size : 68.2 KiB (0%)
Title : Turkish
Language : Turkish
Default : No
Forced : No

Text #48
ID : 50
Format : UTF-8
Codec ID : S_TEXT/UTF8
Codec ID/Info : UTF-8 Plain Text
Duration : 1 h 43 min
Bit rate : 139 b/s
Frame rate : 0.255 FPS
Count of elements : 1586
Stream size : 106 KiB (0%)
Title : Ukrainian
Language : Ukrainian
Default : No
Forced : No

Text #49
ID : 51
Format : UTF-8
Codec ID : S_TEXT/UTF8
Codec ID/Info : UTF-8 Plain Text
Duration : 1 h 43 min
Bit rate : 114 b/s
Frame rate : 0.252 FPS
Count of elements : 1566
Stream size : 86.9 KiB (0%)
Title : Vietnamese
Language : Vietnamese
Default : No
Forced : No

Text #50
ID : 52
Format : UTF-8
Codec ID : S_TEXT/UTF8
Codec ID/Info : UTF-8 Plain Text
Duration : 1 h 43 min
Bit rate : 89 b/s
Frame rate : 0.255 FPS
Count of elements : 1588
Stream size : 68.2 KiB (0%)
Title : 简体
Language : Chinese

Default : No
Forced : No

Text #51
ID : 53
Format : UTF-8
Codec ID : S_TEXT/UTF8
Codec ID/Info : UTF-8 Plain Text
Duration : 1 h 43 min
Bit rate : 90 b/s
Frame rate : 0.255 FPS
Count of elements : 1588
Stream size : 68.6 KiB (0%)
Title : 繁体
Language : Chinese

Default : No
Forced : No

Menu
00:00:00.000 : enart 01
01:43:17.450 : en:Credits

推荐使用qBittorrent、uTorrent、BitComet等下载软件,有条件的推荐115或会员软件下载!

下载地址:
游客,如果您要查看本帖隐藏内容请回复

游客,如果您要查看本帖隐藏内容请回复

游客,如果您要查看本帖隐藏内容请回复

游客,如果您要查看本帖隐藏内容请回复





上一篇:卧虎藏龙:青冥宝剑 [简繁中字] (2016) 4K高清版本下载
下一篇:偷家派对 / House Party (2023) 4K高清版本下载
回复

使用道具 举报

主题

帖子

0

积分

新手上路

Rank: 1

积分
0
发表于 2023-1-17 11:16:35 | 显示全部楼层
谢谢楼主分享
回复 支持 反对

使用道具 举报

0

主题

2

帖子

9

积分

新手上路

Rank: 1

积分
9
发表于 2023-1-17 15:30:42 | 显示全部楼层
看一下。。。。。。
回复

使用道具 举报

0

主题

1

帖子

6

积分

新手上路

Rank: 1

积分
6
发表于 2023-1-17 20:54:03 | 显示全部楼层
谢谢分享
回复

使用道具 举报

0

主题

4

帖子

15

积分

新手上路

Rank: 1

积分
15
发表于 2023-1-17 22:15:09 来自手机 | 显示全部楼层
谢谢分享
回复

使用道具 举报

主题

帖子

0

积分

新手上路

Rank: 1

积分
0
发表于 2023-1-18 20:34:21 | 显示全部楼层
不错。。。。。。。。。。。
回复

使用道具 举报

0

主题

2

帖子

9

积分

新手上路

Rank: 1

积分
9
发表于 3 天前 | 显示全部楼层
yyyyy
回复

使用道具 举报

您需要登录后才可以回帖 登录 | 立即注册

本版积分规则

精彩图文
Archiver|手机版|TAG|Sitemap|新帖|专题|联系我们:邮箱: 4kjia.com@gmail.com   

4k家园   ©2019