[4K电影] 偷家派对 / House Party (2023) 4K高清版本下载

[复制链接]

主题

帖子

0

积分

超级版主

Rank: 8Rank: 8

积分
0
 楼主| 发表于 2023-1-18 12:24:16 | 显示全部楼层 |阅读模式
本帖最后由 最爱4K哟 于 2023-1-18 13:25 编辑

QQ图片20230118122636_副本.png
◎译  名 偷家派对 / 在他家开派对
◎片  名 House Party
◎年  代 2022
◎产  地    美国
◎类  别 喜剧
◎语  言 英语
◎上映日期 2023-01-12(美国)
◎IMDb评分 5.0/10 from 389 users 更新 : 2023-01-18
◎IMDb链接 https://www.imdb.com/title/tt19768508/
◎豆瓣评分 0/10 from 0 users
◎豆瓣链接 https://movie.douban.com/subject/35953585/
◎片  长 100分钟
◎导  演 卡马提克 Calmatic
◎编  剧 史蒂芬·格洛弗 Stephen Glover / 贾马尔·奥洛里 Jamal Olori
◎演  员 雅各布·拉提摩尔 Jacob Latimore
                   托辛·科尔 Tosin Cole
                   D.C. Young Fly D.C. Young Fly
                   凯伦·奥比洛姆 Karen Obilom
                   梅尔文·格雷格 Melvin Gregg
                   罗蒂米 Rotimi
                   阿伦·马尔多纳多 Allen Maldonado
                   夏奇拉·贾奈·帕耶 Shakira Ja'nai Paye
                   卡迪小子 Kid Cudi
                   安德鲁·桑提诺 Andrew Santino
                   塔梅拉·基森 Tamera Kissen
                   比尔·贝拉米 Bill Bellamy
                   娜吉雅布莱斯 Nakia Burrise
                   克里斯·乔丹·沃尔 Chris Jordan Wolfe
                   安东尼·L·费尔南德斯 Anthony L. Fernandez
                   阿蒂克斯·巴塔坎 Atticus Batacan


◎简  介


  两个年轻人利用篮球巨星勒布朗·詹姆斯不在家中的黄金机会,偷偷潜入他家,策划了一场疯狂宴会。
Video
ID : 1
Format : HEVC
Format/Info : High Efficiency Video Coding
Format profile : Main@L5@Main
Codec ID : V_MPEGH/ISO/HEVC
Duration : 1 h 40 min
Bit rate : 14.8 Mb/s
Width : 3 840 pixels
Height : 2 080 pixels
Display aspect ratio : 1.85:1
Frame rate mode : Constant
Frame rate : 23.976 (24000/1001) FPS
Standard : NTSC
Color space : YUV
Chroma subsampling : 4:2:0
Bit depth : 8 bits
Bits/(Pixel*Frame) : 0.077
Stream size : 10.4 GiB (96%)
Writing library : x265 2.9_elemental+1-9e0607aa5b6f:[Linux][GCC 4.8.5][64 bit] 8bit+10bit+12bit
Encoding settings : cpuid=1111039 / frame-threads=2 / wpp / no-pmode / no-pme / psnr / ssim / log-level=2 / csv / csv-log-level=2 / input-csp=1 / input-res=3840x2080 / interlace=0 / total-frames=0 / level-idc=50 / high-tier=1 / uhd-bd=0 / ref=5 / no-allow-non-conformance / no-repeat-headers / annexb / no-aud / no-hrd / info / hash=0 / no-temporal-layers / no-open-gop / min-keyint=61 / keyint=120 / gop-lookahead=0 / bframes=8 / b-adapt=2 / b-pyramid / bframe-bias=0 / rc-lookahead=120 / lookahead-slices=4 / scenecut=0 / radl=0 / no-intra-refresh / ctu=64 / min-cu-size=8 / rect / amp / max-tu-size=32 / tu-inter-depth=4 / tu-intra-depth=4 / limit-tu=4 / rdoq-level=2 / dynamic-rd=0.00 / no-ssim-rd / signhide / tskip / nr-intra=100 / nr-inter=600 / no-constrained-intra / strong-intra-smoothing / max-merge=3 / limit-refs=3 / limit-modes / me=3 / subme=3 / merange=57 / temporal-mvp / weightp / weightb / no-analyze-src-pics / deblock=0:0 / no-sao / no-sao-non-deblock / rd=4 / no-early-skip / no-rskip / no-fast-intra / tskip-fast / no-cu-lossless / b-intra / no-splitrd-skip / rdpenalty=0 / psy-rd=4.00 / psy-rdoq=10.00 / no-rd-refine / no-lossless / cbqpoffs=0 / crqpoffs=0 / rc=crf / crf=25.0 / qcomp=0.60 / qpstep=1 / stats-write=0 / stats-read=0 / vbv-maxrate=15000 / vbv-bufsize=20000 / vbv-init=0.9 / crf-max=0.0 / crf-min=0.0 / ipratio=1.10 / pbratio=1.00 / aq-mode=0 / aq-strength=1.50 / no-cutree / zone-count=0 / no-strict-cbr / qg-size=32 / rc-grain / qpmax=69 / qpmin=0 / const-vbv / sar=255 / sar-width / : / sar-height=481:480 / overscan=0 / videoformat=2 / range=0 / colorprim=1 / transfer=1 / colormatrix=1 / chromaloc=0 / display-window=0 / max-cll=0,0 / min-luma=0 / max-luma=255 / log2-max-poc-lsb=8 / vui-timing-info / vui-hrd-info / slices=1 / opt-qp-pps / no-opt-ref-list-length-pps / no-multi-pass-opt-rps / scenecut-bias=0.05 / no-opt-cu-delta-qp / no-aq-motion / no-hdr / no-hdr-opt / no-dhdr10-opt / no-idr-recovery-sei / analysis-reuse-level=5 / scale-factor=0 / refine-intra=0 / refine-inter=0 / refine-mv=0 / no-limit-sao / ctu-info=0 / no-lowpass-dct / refine-mv-type=0 / copy-pic=1 / max-ausize-factor=1.0 / no-dynamic-refine / no-single-sei
Language : English (US)
Default : Yes
Forced : No
Color range : Limited
Color primaries : BT.709
Transfer characteristics : BT.709
Matrix coefficients : BT.709

Audio
ID : 2
Format : E-AC-3
Format/Info : Enhanced AC-3
Commercial name : Dolby Digital Plus
Codec ID : A_EAC3
Duration : 1 h 40 min
Bit rate mode : Constant
Bit rate : 640 kb/s
Channel(s) : 6 channels
Channel layout : L R C LFE Ls Rs
Sampling rate : 48.0 kHz
Frame rate : 31.250 FPS (1536 SPF)
Compression mode : Lossy
Stream size : 459 MiB (4%)
Language : English
Service kind : Complete Main
Default : Yes
Forced : No

Text #1
ID : 3
Format : UTF-8
Codec ID : S_TEXT/UTF8
Codec ID/Info : UTF-8 Plain Text
Duration : 1 h 39 min
Bit rate : 1 b/s
Frame rate : 0.004 FPS
Count of elements : 26
Stream size : 762 Bytes (0%)
Title : Forced
Language : English (US)
Default : Yes
Forced : Yes

Text #2
ID : 4
Format : UTF-8
Codec ID : S_TEXT/UTF8
Codec ID/Info : UTF-8 Plain Text
Duration : 1 h 39 min
Bit rate : 84 b/s
Frame rate : 0.338 FPS
Count of elements : 2014
Stream size : 61.7 KiB (0%)
Language : English (US)
Default : No
Forced : No

Text #3
ID : 5
Format : UTF-8
Codec ID : S_TEXT/UTF8
Codec ID/Info : UTF-8 Plain Text
Duration : 1 h 39 min
Bit rate : 96 b/s
Frame rate : 0.390 FPS
Count of elements : 2330
Stream size : 70.4 KiB (0%)
Title : SDH
Language : English (US)
Default : No
Forced : No

Text #4
ID : 6
Format : UTF-8
Codec ID : S_TEXT/UTF8
Codec ID/Info : UTF-8 Plain Text
Duration : 1 h 39 min
Bit rate : 72 b/s
Frame rate : 0.288 FPS
Count of elements : 1720
Stream size : 53.0 KiB (0%)
Title : Latin American
Language : Spanish (Latin America)
Default : No
Forced : No

Text #5
ID : 7
Format : UTF-8
Codec ID : S_TEXT/UTF8
Codec ID/Info : UTF-8 Plain Text
Duration : 1 h 37 min
Bit rate : 77 b/s
Frame rate : 0.288 FPS
Count of elements : 1692
Stream size : 55.5 KiB (0%)
Language : French (FR)
Default : No
Forced : No

Text #6
ID : 8
Format : UTF-8
Codec ID : S_TEXT/UTF8
Codec ID/Info : UTF-8 Plain Text
Duration : 1 h 37 min
Bit rate : 66 b/s
Frame rate : 0.280 FPS
Count of elements : 1646
Stream size : 47.5 KiB (0%)
Language : Dutch (NL)
Default : No
Forced : No

Text #7
ID : 9
Format : UTF-8
Codec ID : S_TEXT/UTF8
Codec ID/Info : UTF-8 Plain Text
Duration : 1 h 39 min
Bit rate : 64 b/s
Frame rate : 0.287 FPS
Count of elements : 1713
Stream size : 46.9 KiB (0%)
Language : Polish (PL)
Default : No
Forced : No

Text #8
ID : 10
Format : UTF-8
Codec ID : S_TEXT/UTF8
Codec ID/Info : UTF-8 Plain Text
Duration : 1 h 38 min
Bit rate : 72 b/s
Frame rate : 0.281 FPS
Count of elements : 1670
Stream size : 52.3 KiB (0%)
Language : Swedish (SE)
Default : No
Forced : No

推荐使用qBittorrent、uTorrent、BitComet等下载软件,有条件的推荐115或会员软件下载!

下载地址


游客,如果您要查看本帖隐藏内容请回复







上一篇:网络炼狱:揭发N号房 [简繁中字] (2022) 4K高清版本下载
下一篇:如纸人生 [简繁中字] / Kağıttan Hayatlar (2021) 4K高清版本下载
回复

使用道具 举报

0

主题

1

帖子

6

积分

新手上路

Rank: 1

积分
6
发表于 2023-1-18 13:09:38 | 显示全部楼层
新手,先看看
回复 支持 反对

使用道具 举报

0

主题

20

帖子

99

积分

4K家园VIP

Rank: 9Rank: 9Rank: 9

积分
99
发表于 2023-1-18 15:22:57 | 显示全部楼层

感谢楼主,666666
回复 支持 反对

使用道具 举报

0

主题

5

帖子

18

积分

新手上路

Rank: 1

积分
18
发表于 2023-1-18 20:35:17 | 显示全部楼层
新人报道
回复

使用道具 举报

0

主题

226

帖子

1016

积分

4K家园VIP

Rank: 9Rank: 9Rank: 9

积分
1016
发表于 2023-1-24 20:30:50 | 显示全部楼层
让 江小白 来看看帖子里藏了啥好东西~~~
回复 支持 反对

使用道具 举报

您需要登录后才可以回帖 登录 | 立即注册

本版积分规则

精彩图文
Archiver|手机版|TAG|Sitemap|新帖|专题|联系我们:邮箱: 4kjia.com@gmail.com   

4k家园   ©2019