[4K电影] 如纸人生 [简繁中字] / Kağıttan Hayatlar (2021) 4K高清版本下载

[复制链接]

主题

帖子

0

积分

超级版主

Rank: 8Rank: 8

积分
0
 楼主| 发表于 2023-1-18 12:56:39 | 显示全部楼层 |阅读模式
QQ图片20230118125051_副本.png

◎译  名 如纸人生 / 无重人生(港) / Paper Lives
◎片  名 Ka??ttan Hayatlar
◎年  代 2021
◎产  地 土耳其
◎类  别 剧情
◎语  言 土耳其语
◎上映日期 2021-03-12(土耳其)
◎IMDb评分 6.6/10 from 12473 users 更新 : 2023-01-16
◎IMDb链接 https://www.imdb.com/title/tt13045890/
◎豆瓣评分 7.4/10 from 961 users 更新 : 2023-01-18
◎豆瓣链接 https://movie.douban.com/subject/35380733/
◎片  长 96分钟
◎导  演 坎·乌尔凯 Can Ulkay
◎主  演 察合台·乌鲁索伊 Çagatay Ulusoy
       塞伦·厄兹蒂尔克 Selen Ozturk
                   埃米尔·阿里·多鲁尔 Emir Ali Dogrul
                   埃尔辛·阿里奇 Ersin Arici
                   Turgay Tanülkü Turgay Tanülkü
                   塞伦·厄兹蒂尔克 Selen Ozturk
                   奥斯曼·伊斯肯德·拜耳 Osman Iskender Bayer
                   托姆里斯·西泰尔 Tomris Çetinel
                   沃尔坎·切阿利坎 Volkan Çaliskan
                   Mehmet Bahattin Genç Mehmet Bahattin Genç
                   Oksan Büyük Oksan Büyük
                   Akcan Kovanci Akcan Kovanci
                   阿尼尔·奥兹德米尔 Anil Özdemir
                   Furkan Özkan Furkan Özkan
                   奥坎·艾赛拉尔 Okan Aysalar
                   米拉·切伦Miraç Çelen
                   乌穆特·坎·迪莱恩 Umut Can Dileyen
                   Özay Oguzhan Dilekoglu Özay Oguzhan Dilekoglu
                   雅尔金·叶特 Yalgin Yeter


◎简  介


  讲述伊斯坦布尔的一个贫穷老街区,有一位受人爱戴的家伙,迈赫·迈特,他经营着这个街区的废物仓库,同时,他也会帮助身边每一个需要帮助的人,特别是无家可归的儿童,因为他就是其中一个。一天,迈赫·迈特偶遇一个8岁的男孩,出现在他最好伴侣冈萨雷斯的废纸袋里。此时他的心里有想和父母团聚的冲动,但是他没意识到已经对这个孩子产生了依恋。
Video
ID : 1
Format : HEVC
Format/Info : High Efficiency Video Coding
Format profile : Main 10@L5@Main
Codec ID : V_MPEGH/ISO/HEVC
Duration : 1 h 37 min
Bit rate : 12.0 Mb/s
Width : 3 840 pixels
Height : 2 160 pixels
Display aspect ratio : 16:9
Frame rate mode : Constant
Frame rate : 24.000 FPS
Color space : YUV
Chroma subsampling : 4:2:0
Bit depth : 10 bits
Bits/(Pixel*Frame) : 0.060
Stream size : 8.14 GiB (89%)
Language : Turkish
Default : Yes
Forced : No
Color range : Limited
Color primaries : BT.709
Transfer characteristics : BT.709
Matrix coefficients : BT.709

Audio #1
ID : 2
Format : E-AC-3 JOC
Format/Info : Enhanced AC-3 with Joint Object Coding
Commercial name : Dolby Digital Plus with Dolby Atmos
Codec ID : A_EAC3
Duration : 1 h 37 min
Bit rate mode : Constant
Bit rate : 768 kb/s
Channel(s) : 6 channels
Channel layout : L R C LFE Ls Rs
Sampling rate : 48.0 kHz
Frame rate : 31.250 FPS (1536 SPF)
Compression mode : Lossy
Stream size : 535 MiB (6%)
Language : Turkish
Service kind : Complete Main
Default : Yes
Forced : No
Complexity index : 16
Number of dynamic objects : 15
Bed channel count : 1 channel
Bed channel configuration : LFE

Audio #2
ID : 3
Format : E-AC-3
Format/Info : Enhanced AC-3
Commercial name : Dolby Digital Plus
Codec ID : A_EAC3
Duration : 1 h 37 min
Bit rate mode : Constant
Bit rate : 640 kb/s
Channel(s) : 6 channels
Channel layout : L R C LFE Ls Rs
Sampling rate : 48.0 kHz
Frame rate : 31.250 FPS (1536 SPF)
Compression mode : Lossy
Stream size : 446 MiB (5%)
Title : British
Language : English (GB)
Service kind : Complete Main
Default : No
Forced : No

Text #1
ID : 4
Format : UTF-8
Codec ID : S_TEXT/UTF8
Codec ID/Info : UTF-8 Plain Text
Duration : 1 h 31 min
Bit rate : 45 b/s
Frame rate : 0.192 FPS
Count of elements : 1058
Stream size : 30.3 KiB (0%)
Language : Turkish
Default : No
Forced : No

Text #2
ID : 5
Format : UTF-8
Codec ID : S_TEXT/UTF8
Codec ID/Info : UTF-8 Plain Text
Duration : 1 h 35 min
Bit rate : 57 b/s
Frame rate : 0.236 FPS
Count of elements : 1352
Stream size : 40.2 KiB (0%)
Title : SDH
Language : Turkish
Default : No
Forced : No

Text #3
ID : 6
Format : UTF-8
Codec ID : S_TEXT/UTF8
Codec ID/Info : UTF-8 Plain Text
Duration : 1 h 31 min
Bit rate : 1 b/s
Frame rate : 0.005 FPS
Count of elements : 26
Stream size : 991 Bytes (0%)
Title : British (Forced)
Language : English (GB)
Default : No
Forced : Yes

Text #4
ID : 7
Format : UTF-8
Codec ID : S_TEXT/UTF8
Codec ID/Info : UTF-8 Plain Text
Duration : 1 h 32 min
Bit rate : 40 b/s
Frame rate : 0.172 FPS
Count of elements : 954
Stream size : 27.6 KiB (0%)
Language : English
Default : No
Forced : No

Text #5
ID : 8
Format : UTF-8
Codec ID : S_TEXT/UTF8
Codec ID/Info : UTF-8 Plain Text
Duration : 1 h 32 min
Bit rate : 48 b/s
Frame rate : 0.217 FPS
Count of elements : 1206
Stream size : 32.6 KiB (0%)
Title : SDH
Language : English
Default : No
Forced : No

Text #6
ID : 9
Format : UTF-8
Codec ID : S_TEXT/UTF8
Codec ID/Info : UTF-8 Plain Text
Duration : 1 h 36 min
Bit rate : 65 b/s
Frame rate : 0.166 FPS
Count of elements : 956
Stream size : 46.5 KiB (0%)
Language : Arabic
Default : No
Forced : No

Text #7
ID : 10
Format : UTF-8
Codec ID : S_TEXT/UTF8
Codec ID/Info : UTF-8 Plain Text
Duration : 1 h 36 min
Bit rate : 37 b/s
Frame rate : 0.164 FPS
Count of elements : 948
Stream size : 26.1 KiB (0%)
Language : Czech
Default : No
Forced : No

Text #8
ID : 11
Format : UTF-8
Codec ID : S_TEXT/UTF8
Codec ID/Info : UTF-8 Plain Text
Duration : 1 h 36 min
Bit rate : 37 b/s
Frame rate : 0.165 FPS
Count of elements : 951
Stream size : 26.1 KiB (0%)
Language : Danish
Default : No
Forced : No

Text #9
ID : 12
Format : UTF-8
Codec ID : S_TEXT/UTF8
Codec ID/Info : UTF-8 Plain Text
Duration : 1 h 36 min
Bit rate : 40 b/s
Frame rate : 0.163 FPS
Count of elements : 942
Stream size : 28.2 KiB (0%)
Language : German
Default : No
Forced : No

Text #10
ID : 13
Format : UTF-8
Codec ID : S_TEXT/UTF8
Codec ID/Info : UTF-8 Plain Text
Duration : 1 h 36 min
Bit rate : 64 b/s
Frame rate : 0.166 FPS
Count of elements : 956
Stream size : 45.2 KiB (0%)
Language : Greek
Default : No
Forced : No

Text #11
ID : 14
Format : UTF-8
Codec ID : S_TEXT/UTF8
Codec ID/Info : UTF-8 Plain Text
Duration : 1 h 36 min
Bit rate : 37 b/s
Frame rate : 0.164 FPS
Count of elements : 947
Stream size : 26.8 KiB (0%)
Title : Latin American
Language : Spanish (Latin America)
Default : No
Forced : No

Text #12
ID : 15
Format : UTF-8
Codec ID : S_TEXT/UTF8
Codec ID/Info : UTF-8 Plain Text
Duration : 1 h 36 min
Bit rate : 39 b/s
Frame rate : 0.165 FPS
Count of elements : 955
Stream size : 27.5 KiB (0%)
Language : Spanish (ES)
Default : No
Forced : No

Text #13
ID : 16
Format : UTF-8
Codec ID : S_TEXT/UTF8
Codec ID/Info : UTF-8 Plain Text
Duration : 1 h 36 min
Bit rate : 38 b/s
Frame rate : 0.158 FPS
Count of elements : 910
Stream size : 26.8 KiB (0%)
Language : Finnish
Default : No
Forced : No

Text #14
ID : 17
Format : UTF-8
Codec ID : S_TEXT/UTF8
Codec ID/Info : UTF-8 Plain Text
Duration : 1 h 36 min
Bit rate : 39 b/s
Frame rate : 0.163 FPS
Count of elements : 940
Stream size : 27.7 KiB (0%)
Language : French
Default : No
Forced : No

Text #15
ID : 18
Format : UTF-8
Codec ID : S_TEXT/UTF8
Codec ID/Info : UTF-8 Plain Text
Duration : 1 h 36 min
Bit rate : 62 b/s
Frame rate : 0.165 FPS
Count of elements : 954
Stream size : 43.7 KiB (0%)
Language : Hebrew
Default : No
Forced : No

Text #16
ID : 19
Format : UTF-8
Codec ID : S_TEXT/UTF8
Codec ID/Info : UTF-8 Plain Text
Duration : 1 h 36 min
Bit rate : 33 b/s
Frame rate : 0.169 FPS
Count of elements : 977
Stream size : 23.3 KiB (0%)
Language : Croatian
Default : No
Forced : No

Text #17
ID : 20
Format : UTF-8
Codec ID : S_TEXT/UTF8
Codec ID/Info : UTF-8 Plain Text
Duration : 1 h 36 min
Bit rate : 36 b/s
Frame rate : 0.165 FPS
Count of elements : 950
Stream size : 25.8 KiB (0%)
Language : Hungarian
Default : No
Forced : No

Text #18
ID : 21
Format : UTF-8
Codec ID : S_TEXT/UTF8
Codec ID/Info : UTF-8 Plain Text
Duration : 1 h 36 min
Bit rate : 38 b/s
Frame rate : 0.166 FPS
Count of elements : 959
Stream size : 27.4 KiB (0%)
Language : Indonesian
Default : No
Forced : No

Text #19
ID : 22
Format : UTF-8
Codec ID : S_TEXT/UTF8
Codec ID/Info : UTF-8 Plain Text
Duration : 1 h 36 min
Bit rate : 36 b/s
Frame rate : 0.164 FPS
Count of elements : 948
Stream size : 25.7 KiB (0%)
Language : Italian
Default : No
Forced : No

Text #20
ID : 23
Format : UTF-8
Codec ID : S_TEXT/UTF8
Codec ID/Info : UTF-8 Plain Text
Duration : 1 h 36 min
Bit rate : 37 b/s
Frame rate : 0.197 FPS
Count of elements : 1138
Stream size : 26.6 KiB (0%)
Language : Japanese
Default : No
Forced : No

Text #21
ID : 24
Format : UTF-8
Codec ID : S_TEXT/UTF8
Codec ID/Info : UTF-8 Plain Text
Duration : 1 h 36 min
Bit rate : 48 b/s
Frame rate : 0.172 FPS
Count of elements : 994
Stream size : 33.9 KiB (0%)
Language : Korean
Default : No
Forced : No

Text #22
ID : 25
Format : UTF-8
Codec ID : S_TEXT/UTF8
Codec ID/Info : UTF-8 Plain Text
Duration : 1 h 36 min
Bit rate : 38 b/s
Frame rate : 0.165 FPS
Count of elements : 954
Stream size : 27.0 KiB (0%)
Language : Malay
Default : No
Forced : No

Text #23
ID : 26
Format : UTF-8
Codec ID : S_TEXT/UTF8
Codec ID/Info : UTF-8 Plain Text
Duration : 1 h 36 min
Bit rate : 36 b/s
Frame rate : 0.165 FPS
Count of elements : 950
Stream size : 25.4 KiB (0%)
Language : Norwegian Bokmal
Default : No
Forced : No

Text #24
ID : 27
Format : UTF-8
Codec ID : S_TEXT/UTF8
Codec ID/Info : UTF-8 Plain Text
Duration : 1 h 36 min
Bit rate : 34 b/s
Frame rate : 0.160 FPS
Count of elements : 921
Stream size : 24.4 KiB (0%)
Language : Dutch
Default : No
Forced : No

Text #25
ID : 28
Format : UTF-8
Codec ID : S_TEXT/UTF8
Codec ID/Info : UTF-8 Plain Text
Duration : 1 h 36 min
Bit rate : 35 b/s
Frame rate : 0.172 FPS
Count of elements : 994
Stream size : 24.9 KiB (0%)
Language : Polish
Default : No
Forced : No

Text #26
ID : 29
Format : UTF-8
Codec ID : S_TEXT/UTF8
Codec ID/Info : UTF-8 Plain Text
Duration : 1 h 36 min
Bit rate : 36 b/s
Frame rate : 0.165 FPS
Count of elements : 955
Stream size : 26.1 KiB (0%)
Title : Brazilian
Language : Portuguese (BR)
Default : No
Forced : No

Text #27
ID : 30
Format : UTF-8
Codec ID : S_TEXT/UTF8
Codec ID/Info : UTF-8 Plain Text
Duration : 1 h 36 min
Bit rate : 38 b/s
Frame rate : 0.165 FPS
Count of elements : 950
Stream size : 26.9 KiB (0%)
Language : Portuguese (PT)
Default : No
Forced : No

Text #28
ID : 31
Format : UTF-8
Codec ID : S_TEXT/UTF8
Codec ID/Info : UTF-8 Plain Text
Duration : 1 h 36 min
Bit rate : 42 b/s
Frame rate : 0.162 FPS
Count of elements : 937
Stream size : 29.8 KiB (0%)
Language : Romanian
Default : No
Forced : No

Text #29
ID : 32
Format : UTF-8
Codec ID : S_TEXT/UTF8
Codec ID/Info : UTF-8 Plain Text
Duration : 1 h 36 min
Bit rate : 63 b/s
Frame rate : 0.181 FPS
Count of elements : 1044
Stream size : 44.8 KiB (0%)
Language : Russian
Default : No
Forced : No

Text #30
ID : 33
Format : UTF-8
Codec ID : S_TEXT/UTF8
Codec ID/Info : UTF-8 Plain Text
Duration : 1 h 36 min
Bit rate : 37 b/s
Frame rate : 0.160 FPS
Count of elements : 922
Stream size : 26.3 KiB (0%)
Language : Swedish
Default : No
Forced : No

Text #31
ID : 34
Format : UTF-8
Codec ID : S_TEXT/UTF8
Codec ID/Info : UTF-8 Plain Text
Duration : 1 h 36 min
Bit rate : 94 b/s
Frame rate : 0.172 FPS
Count of elements : 991
Stream size : 66.5 KiB (0%)
Language : Thai
Default : No
Forced : No

Text #32
ID : 35
Format : UTF-8
Codec ID : S_TEXT/UTF8
Codec ID/Info : UTF-8 Plain Text
Duration : 1 h 36 min
Bit rate : 53 b/s
Frame rate : 0.166 FPS
Count of elements : 959
Stream size : 37.6 KiB (0%)
Language : Vietnamese
Default : No
Forced : No

Text #33
ID : 36
Format : UTF-8
Codec ID : S_TEXT/UTF8
Codec ID/Info : UTF-8 Plain Text
Duration : 1 h 36 min
Bit rate : 46 b/s
Frame rate : 0.165 FPS
Count of elements : 954
Stream size : 32.6 KiB (0%)
Title : 简体
Language : Chinese (Simplied)

Default : No
Forced : No

Text #34
ID : 37
Format : UTF-8
Codec ID : S_TEXT/UTF8
Codec ID/Info : UTF-8 Plain Text
Duration : 1 h 36 min
Bit rate : 44 b/s
Frame rate : 0.188 FPS
Count of elements : 1084
Stream size : 31.1 KiB (0%)
Title : 繁体
Language : Chinese (Traditional)

Default : No
Forced : No

Menu
01:33:39.000 : en:End Credits

推荐使用qBittorrent、uTorrent、BitComet等下载软件,有条件的推荐115或会员软件下载!

下载地址

游客,如果您要查看本帖隐藏内容请回复





.

上一篇:偷家派对 / House Party (2023) 4K高清版本下载
下一篇:极冻邪恶 / Snow Falls (2023) 4K高清版本下载
回复

使用道具 举报

0

主题

1

帖子

6

积分

新手上路

Rank: 1

积分
6
发表于 2023-1-18 17:04:14 | 显示全部楼层
感谢大神发帖分享,令人感动的好片子
回复 支持 反对

使用道具 举报

您需要登录后才可以回帖 登录 | 立即注册

本版积分规则

精彩图文
Archiver|手机版|TAG|Sitemap|新帖|专题|联系我们:邮箱: 4kjia.com@gmail.com   

4k家园   ©2019