[4K MV] NS Yoon-G - 我成为女巫的原因 [2160P/MP4/1.12GB]

  [复制链接]

主题

帖子

0

积分

超级版主

Rank: 8Rank: 8

积分
0
 楼主| 发表于 2023-1-19 11:09:02 | 显示全部楼层 |阅读模式
本帖最后由 叽里呱啦 于 2023-1-19 18:52 编辑

NS Yoon-G - 我成为女巫的原因[UHD 2160p].mp4_20230119_105233.084.jpg NS Yoon-G - 我成为女巫的原因[UHD 2160p].mp4_20230119_105305.244.jpg NS Yoon-G - 我成为女巫的原因[UHD 2160p].mp4_20230119_105316.619.jpg NS Yoon-G - 我成为女巫的原因[UHD 2160p].mp4_20230119_105326.763.jpg NS Yoon-G - 我成为女巫的原因[UHD 2160p].mp4_20230119_105453.900.jpg NS Yoon-G - 我成为女巫的原因[UHD 2160p].mp4_20230119_105506.900.jpg NS Yoon-G - 我成为女巫的原因[UHD 2160p].mp4_20230119_105533.707.jpg NS Yoon-G - 我成为女巫的原因[UHD 2160p].mp4_20230119_105558.467.jpg

  1. General
  2. Complete name                  : K:\4K 韩国MV\[4Kjia小组压制分享] NS Yoon-G - 我成为女巫的原因[UHD 2160p]www.4kjia.com\[4Kjia小组压制分享] NS Yoon-G - 我成为女巫的原因[UHD 2160p]www.4kjia.com.mp4
  3. Format                         : MPEG-4
  4. Format profile                 : Base Media
  5. Codec ID                       : isom (isom/iso2/avc1/mp41)
  6. File size                      : 1.13 GiB
  7. Duration                       : 3 min 43 s
  8. Overall bit rate               : 43.4 Mb/s
  9. Writing application            : Lavf55.12.100

  10. Video
  11. ID                             : 2
  12. Format                         : AVC
  13. Format/Info                    : Advanced Video Codec
  14. Format profile                 : Main@L5.1
  15. Format settings                : CABAC / 5 Ref Frames
  16. Format settings, CABAC         : Yes
  17. Format settings, Reference fra : 5 frames
  18. Codec ID                       : avc1
  19. Codec ID/Info                  : Advanced Video Coding
  20. Duration                       : 3 min 43 s
  21. Bit rate                       : 43.1 Mb/s
  22. Width                          : 3 840 pixels
  23. Height                         : 2 160 pixels
  24. Display aspect ratio           : 16:9
  25. Frame rate mode                : Constant
  26. Frame rate                     : 23.976 (23976/1000) FPS
  27. Color space                    : YUV
  28. Chroma subsampling             : 4:2:0
  29. Bit depth                      : 8 bits
  30. Scan type                      : Progressive
  31. Bits/(Pixel*Frame)             : 0.217
  32. Stream size                    : 1.12 GiB (99%)
  33. Codec configuration box        : avcC

  34. Audio
  35. ID                             : 1
  36. Format                         : AAC LC
  37. Format/Info                    : Advanced Audio Codec Low Complexity
  38. Codec ID                       : mp4a-40-2
  39. Duration                       : 3 min 43 s
  40. Duration_LastFrame             : -9 ms
  41. Bit rate mode                  : Constant
  42. Bit rate                       : 256 kb/s
  43. Channel(s)                     : 2 channels
  44. Channel layout                 : L R
  45. Sampling rate                  : 48.0 kHz
  46. Frame rate                     : 46.875 FPS (1024 SPF)
  47. Compression mode               : Lossy
  48. Stream size                    : 6.81 MiB (0%)
  49. Language                       : Korean
  50. Default                        : Yes
  51. Alternate group                : 1

复制代码


PS:小水管制作不易,下载后请保持做种姿势,谢谢!

下载地址:(新种资源请用qbittorrent、uTorrent、BitComet、Free Download Manager等下载软件挂机下载,谢谢!
****此区域为收费内容****    需支付 30 金币后可查看立即购买
提供2010-2022年本人多年来珍藏优质[4K、8K、16K(25-120fps)] 高品质韩国(女团)MV、各种演示片、测试片等4K韩国MV“珍藏版”视频硬盘有偿拷贝或网盘分享,最新4K视频每天更新中,需要的联系本楼主!








上一篇:[4K 韩国女团MV] 2022 STAYC(史黛西)-Run 2U [2160P/MP4/932MB]
下一篇:[4K韩国女团 MV]2022 黑粉色(Blackpink)- 粉色毒液[2160P/MP4/303MB]
回复

使用道具 举报

主题

帖子

0

积分

新手上路

Rank: 1

积分
0
发表于 6 天前 | 显示全部楼层
谢谢楼主分享
回复 支持 反对

使用道具 举报

您需要登录后才可以回帖 登录 | 立即注册

本版积分规则

精彩图文
Archiver|手机版|TAG|Sitemap|新帖|专题|联系我们:邮箱: 4kjia.com@gmail.com   

4k家园   ©2019