[4K美女视频] 2019 韩国比基尼健美比赛现场实拍149 [2160P/MP4/331MB]

[复制链接]

1167

主题

1310

帖子

8612

积分

超级版主

Rank: 8Rank: 8

积分
8612
 楼主| 发表于 2019-9-11 12:46:21 | 显示全部楼层 |阅读模式
韩国比基尼健美比赛现场实拍149.mp4_20190909_112510.259.jpg 韩国比基尼健美比赛现场实拍149.mp4_20190909_112528.867.jpg 韩国比基尼健美比赛现场实拍149.mp4_20190909_112537.139.jpg 韩国比基尼健美比赛现场实拍149.mp4_20190909_112543.411.jpg

General
Complete name                  : 2019韩国比基尼健美比赛现场实拍149.mp4
Format                         : MPEG-4
Format profile                 : Base Media
Codec ID                       : isom (isom/iso2/avc1/mp41)
File size                      : 331 MiB
Duration                       : 3 min 1 s
Overall bit rate               : 15.3 Mb/s
Writing application            : Lavf58.12.100

Video
ID                             : 1
Format                         : AVC
Format/Info                    : Advanced Video Codec
Format profile                 : High@L5.1
Format settings                : CABAC / 4 Ref Frames
Format settings, CABAC         : Yes
Format settings, Reference fra : 4 frames
Codec ID                       : avc1
Codec ID/Info                  : Advanced Video Coding
Duration                       : 3 min 1 s
Bit rate                       : 15.0 Mb/s
Width                          : 3 840 pixels
Height                         : 2 160 pixels
Display aspect ratio           : 16:9
Frame rate mode                : Constant
Frame rate                     : 29.000 FPS
Color space                    : YUV
Chroma subsampling             : 4:2:0
Bit depth                      : 8 bits
Scan type                      : Progressive
Bits/(Pixel*Frame)             : 0.062
Stream size                    : 328 MiB (99%)
Writing library                : x264 core 148
Encoding settings              : cabac=1 / ref=3 / deblock=1:0:0 / analyse=0x3:0x113 / me=hex / subme=7 / psy=1 / psy_rd=1.00:0.00 / mixed_ref=1 / me_range=16 / chroma_me=1 / trellis=1 / 8x8dct=1 / cqm=0 / deadzone=21,11 / fast_pskip=1 / chroma_qp_offset=-2 / threads=6 / lookahead_threads=1 / sliced_threads=0 / nr=0 / decimate=1 / interlaced=0 / bluray_compat=0 / constrained_intra=0 / bframes=3 / b_pyramid=2 / b_adapt=1 / b_bias=0 / direct=1 / weightb=1 / open_gop=0 / weightp=2 / keyint=250 / keyint_min=25 / scenecut=40 / intra_refresh=0 / rc_lookahead=40 / rc=abr / mbtree=1 / bitrate=15000 / ratetol=1.0 / qcomp=0.60 / qpmin=0 / qpmax=69 / qpstep=4 / ip_ratio=1.40 / aq=1:1.00
Language                       : English
Codec configuration box        : avcC

Audio
ID                             : 2
Format                         : AAC LC
Format/Info                    : Advanced Audio Codec Low Complexity
Codec ID                       : mp4a-40-2
Duration                       : 3 min 1 s
Duration_LastFrame             : -23 ms
Bit rate mode                  : Constant
Bit rate                       : 129 kb/s
Channel(s)                     : 2 channels
Channel layout                 : L R
Sampling rate                  : 44.1 kHz
Frame rate                     : 43.066 FPS (1024 SPF)
Compression mode               : Lossy
Stream size                    : 2.78 MiB (1%)
Language                       : English
Default                        : Yes
Alternate group                : 1

韩国比基尼健美比赛现场实拍149.mp4.jpg

网盘下载失效不补:链接: https://pan.baidu.com/s/1zpUY_1poUdrK-xkrNmwcKQ
****此区域为收费内容****    需支付 15 金币后可查看立即购买



.

上一篇:2019 韩国模特系列-19 [2160P/MP4/272MB]
下一篇:2019夏季清凉性感比基尼美女走秀1 [2160P/MP4/144MB]
回复

使用道具 举报

0

主题

919

帖子

2769

积分

4K家园VIP

Rank: 9Rank: 9Rank: 9

积分
2769
发表于 2019-9-11 12:46:26 | 显示全部楼层
秀起来~
回复 支持 反对

使用道具 举报

0

主题

611

帖子

3280

积分

中级会员

Rank: 4

积分
3280
发表于 2019-9-11 13:47:52 | 显示全部楼层
多谢多谢楼主!!!
回复 支持 反对

使用道具 举报

0

主题

783

帖子

2365

积分

4K家园VIP

Rank: 9Rank: 9Rank: 9

积分
2365
发表于 2019-9-11 14:08:24 | 显示全部楼层
传说中的沙发???哇卡卡
回复 支持 反对

使用道具 举报

0

主题

419

帖子

3150

积分

4K家园VIP

Rank: 9Rank: 9Rank: 9

积分
3150
QQ
发表于 2019-9-11 14:50:57 | 显示全部楼层
下载珍藏了!!
回复 支持 反对

使用道具 举报

36

主题

1105

帖子

3113

积分

4K家园VIP

Rank: 9Rank: 9Rank: 9

积分
3113
发表于 7 天前 | 显示全部楼层
额.....这个可以有
回复 支持 反对

使用道具 举报

0

主题

1254

帖子

3398

积分

4K家园VIP

Rank: 9Rank: 9Rank: 9

积分
3398
发表于 6 天前 | 显示全部楼层
鄙视楼下的顶帖没我快,哈哈
回复 支持 反对

使用道具 举报

0

主题

1267

帖子

3385

积分

中级会员

Rank: 4

积分
3385
发表于 6 天前 | 显示全部楼层
锄禾日当午,发帖真辛苦。谁知坛中餐,帖帖皆辛苦!
回复 支持 反对

使用道具 举报

您需要登录后才可以回帖 登录 | 立即注册

本版积分规则

精彩图文
关闭

站长推荐上一条 /1 下一条

Archiver|手机版|TAG|Sitemap|新帖|专题|联系我们:邮箱: 4kjia.com@gmail.com   

4k家园   ©2019