[4K美女视频] 2019夏季清凉性感比基尼美女走秀1 [2160P/MP4/144MB]

[复制链接]

1220

主题

1366

帖子

9327

积分

超级版主

Rank: 8Rank: 8

积分
9327
 楼主| 发表于 2019-9-12 21:22:33 | 显示全部楼层 |阅读模式
夏季清凉性感比基尼美女走秀1.mp4_20190909_113428.795.jpg 夏季清凉性感比基尼美女走秀1.mp4_20190909_114009.698.jpg 夏季清凉性感比基尼美女走秀1.mp4_20190909_113457.106.jpg 夏季清凉性感比基尼美女走秀1.mp4_20190909_113513.994.jpg

General
Complete name                  : 2019夏季清凉性感比基尼美女走秀1.mp4
Format                         : MPEG-4
Format profile                 : Base Media
Codec ID                       : isom (isom/iso2/avc1/mp41)
File size                      : 144 MiB
Duration                       : 1 min 18 s
Overall bit rate               : 15.4 Mb/s
Writing application            : Lavf58.12.100

Video
ID                             : 1
Format                         : AVC
Format/Info                    : Advanced Video Codec
Format profile                 : High@L5.1
Format settings                : CABAC / 4 Ref Frames
Format settings, CABAC         : Yes
Format settings, Reference fra : 4 frames
Codec ID                       : avc1
Codec ID/Info                  : Advanced Video Coding
Duration                       : 1 min 18 s
Bit rate                       : 16.0 Mb/s
Width                          : 3 840 pixels
Height                         : 2 160 pixels
Display aspect ratio           : 16:9
Frame rate mode                : Constant
Frame rate                     : 29.000 FPS
Color space                    : YUV
Chroma subsampling             : 4:2:0
Bit depth                      : 8 bits
Scan type                      : Progressive
Bits/(Pixel*Frame)             : 0.067
Stream size                    : 143 MiB (99%)
Writing library                : x264 core 148
Encoding settings              : cabac=1 / ref=3 / deblock=1:0:0 / analyse=0x3:0x113 / me=hex / subme=7 / psy=1 / psy_rd=1.00:0.00 / mixed_ref=1 / me_range=16 / chroma_me=1 / trellis=1 / 8x8dct=1 / cqm=0 / deadzone=21,11 / fast_pskip=1 / chroma_qp_offset=-2 / threads=6 / lookahead_threads=1 / sliced_threads=0 / nr=0 / decimate=1 / interlaced=0 / bluray_compat=0 / constrained_intra=0 / bframes=3 / b_pyramid=2 / b_adapt=1 / b_bias=0 / direct=1 / weightb=1 / open_gop=0 / weightp=2 / keyint=250 / keyint_min=25 / scenecut=40 / intra_refresh=0 / rc_lookahead=40 / rc=abr / mbtree=1 / bitrate=16000 / ratetol=1.0 / qcomp=0.60 / qpmin=0 / qpmax=69 / qpstep=4 / ip_ratio=1.40 / aq=1:1.00
Language                       : English
Codec configuration box        : avcC

Audio
ID                             : 2
Format                         : AAC LC
Format/Info                    : Advanced Audio Codec Low Complexity
Codec ID                       : mp4a-40-2
Duration                       : 1 min 18 s
Bit rate mode                  : Constant
Bit rate                       : 128 kb/s
Channel(s)                     : 2 channels
Channel layout                 : L R
Sampling rate                  : 44.1 kHz
Frame rate                     : 43.066 FPS (1024 SPF)
Compression mode               : Lossy
Stream size                    : 1.20 MiB (1%)
Default                        : Yes
Alternate group                : 1

夏季清凉性感比基尼美女走秀1.mp4.jpg

网盘下载失效不补:链接: https://pan.baidu.com/s/1PiWDzHcTzPAKeWzY8yC3Mg
****此区域为收费内容****    需支付 15 金币后可查看立即购买



.

上一篇:2019 韩国比基尼健美比赛现场实拍149 [2160P/MP4/331MB]
下一篇:2019 酷卡车展4位比基尼美女车模展示 [2160P/MP4/128MB]
回复

使用道具 举报

0

主题

944

帖子

2852

积分

4K家园VIP

Rank: 9Rank: 9Rank: 9

积分
2852
发表于 2019-9-12 21:22:38 | 显示全部楼层
沙发位出租,
回复 支持 反对

使用道具 举报

1

主题

449

帖子

3566

积分

4K家园VIP

Rank: 9Rank: 9Rank: 9

积分
3566
QQ
发表于 2019-9-12 21:33:14 | 显示全部楼层
强烈支持了!!
回复 支持 反对

使用道具 举报

1

主题

976

帖子

2899

积分

4K家园VIP

Rank: 9Rank: 9Rank: 9

积分
2899
发表于 2019-9-12 21:52:43 | 显示全部楼层
楼猪V5啊
回复 支持 反对

使用道具 举报

0

主题

694

帖子

3794

积分

中级会员

Rank: 4

积分
3794
发表于 2019-9-13 07:14:33 | 显示全部楼层
多谢多谢楼主!!!
回复 支持 反对

使用道具 举报

0

主题

1303

帖子

3511

积分

4K家园VIP

Rank: 9Rank: 9Rank: 9

积分
3511
发表于 2019-9-14 10:51:40 来自手机 | 显示全部楼层
回复 支持 反对

使用道具 举报

0

主题

973

帖子

2931

积分

4K家园VIP

Rank: 9Rank: 9Rank: 9

积分
2931
发表于 2019-9-16 18:06:07 | 显示全部楼层
我也是坐沙发的
回复 支持 反对

使用道具 举报

0

主题

974

帖子

2736

积分

4K家园VIP

Rank: 9Rank: 9Rank: 9

积分
2736
发表于 2019-9-16 20:13:14 | 显示全部楼层
出4K版啦,下个看看
回复 支持 反对

使用道具 举报

0

主题

8235

帖子

9498

积分

金牌会员

Rank: 6Rank: 6

积分
9498
发表于 2019-9-29 21:24:20 | 显示全部楼层
这个帖子不回对不起自己!我想我是一天也不能离开4K家园。
回复 支持 反对

使用道具 举报

您需要登录后才可以回帖 登录 | 立即注册

本版积分规则

精彩图文
关闭

站长推荐上一条 /1 下一条

Archiver|手机版|TAG|Sitemap|新帖|专题|联系我们:邮箱: 4kjia.com@gmail.com   

4k家园   ©2019