《安娜》4K高清下载/12.88GB/12.86GB

  [复制链接]

143

主题

149

帖子

1539

积分

4K家园VIP

Rank: 9Rank: 9Rank: 9

积分
1539
 楼主| 发表于 2019-9-10 19:12:50 | 显示全部楼层 |阅读模式
本帖最后由 没完没了 于 2019-9-10 19:14 编辑

QQ图片20190910181707.png

◎译  名 安娜
◎片  名 Anna
◎年  代 2019
◎产  地 法国 / 美国
◎类  别 动作 / 惊悚
◎语  言 英语 / 俄语
◎上映日期 2019-06-21(美国) / 2019-07-10(法国)
◎IMDb评分 6.6/10 from 8495 users
◎IMDb链接 http://www.imdb.com/title/tt7456310
◎豆瓣评分 7.6/10 from 979 users
◎豆瓣链接 https://movie.douban.com/subject/27166976/
◎片  长 119分钟
◎导  演 吕克·贝松 Luc Besson
◎编  剧 吕克·贝松 Luc Besson
◎主  演 萨莎·露丝 Sasha Luss
      海伦·米伦 Helen Mirren
      卢克·伊万斯 Luke Evans
      基里安·墨菲 Cillian Murphy
      亚历山大·佩特罗夫 Alexander Petrov
      艾力克·高敦 Eric Godon
      伊凡·弗拉内克 Ivan Franek
      Jean-Baptiste Puech
      阿德里安·坎恩 Adrian Can
      安德鲁·霍华德 Andrew Howard
      保利妮·霍劳 Pauline Hoarau
      雷吉尔·库迪乌 Réginal Kudiwu
      耶斯·利奥丹 Jess Liaudin
      鲁伯特·韦恩-詹姆斯 Rupert Wynne-James
      埃文特·斯特朗 Avant Strangel
      詹·奥利弗·施罗德 Jan Oliver Schroeder
      克里斯多夫·泰克 Christophe Tek
      詹姆斯·乔因特 James Joint
      谢尔盖·巴切乌尔斯基 Sergey Bachurskiy
      扎克·安德里亚纳索洛 Zac Andrianasolo
      莱拉·阿波瓦 Lera Abova
      Nikita Pavlenko
      Anna Krippa
      Aleksey Maslodudov
      Alison Wheeler
      Travis Kerschen



◎简  介

  故事聚焦神秘女杀手安娜的成长及执行各种暗杀任务的经历,在美丽的外表下,安娜拥有聪明绝顶的头脑和强大的战斗技巧,是世界上最恐怖的刺客之一,她游走于黑白两道,只要被锁定的目标,从不失手。


Video
ID : 1
Format : HEVC
Format/Info : High Efficiency Video Coding
Format profile : Main@L5@Main
Codec ID : V_MPEGH/ISO/HEVC
Duration : 1 h 58 min
Bit rate : 14.6 Mb/s
Width : 3 840 pixels
Height : 1 608 pixels
Original height : 2 160 pixels
Display aspect ratio : 16:9
Frame rate mode : Constant
Frame rate : 23.976 (23976/1000) FPS
Color space : YUV
Chroma subsampling : 4:2:0
Bit depth : 8 bits
Bits/(Pixel*Frame) : 0.099
Stream size : 12.1 GiB (95%)
Writing library : x265 3.0:[Linux][GCC 4.8.5][64 bit] 8bit
Encoding settings : cpuid=1111039 / frame-threads=6 / wpp / no-pmode / no-pme / no-psnr / no-ssim / log-level=2 / input-csp=1 / input-res=3840x2160 / interlace=0 / total-frames=0 / level-idc=0 / high-tier=1 / uhd-bd=0 / ref=3 / no-allow-non-conformance / no-repeat-headers / annexb / no-aud / no-hrd / info / hash=0 / no-temporal-layers / no-open-gop / min-keyint=4 / keyint=48 / gop-lookahead=0 / bframes=4 / b-adapt=2 / b-pyramid / bframe-bias=0 / rc-lookahead=80 / lookahead-slices=4 / scenecut=0 / radl=0 / no-splice / no-intra-refresh / ctu=64 / min-cu-size=8 / rect / no-amp / max-tu-size=32 / tu-inter-depth=1 / tu-intra-depth=1 / limit-tu=0 / rdoq-level=2 / dynamic-rd=0.00 / no-ssim-rd / signhide / no-tskip / nr-intra=0 / nr-inter=0 / no-constrained-intra / strong-intra-smoothing / max-merge=3 / limit-refs=3 / limit-modes / me=2 / subme=3 / merange=64 / temporal-mvp / weightp / no-weightb / no-analyze-src-pics / deblock=0:0 / no-sao / no-sao-non-deblock / rd=4 / no-early-skip / no-rskip / no-fast-intra / no-tskip-fast / no-cu-lossless / no-b-intra / no-splitrd-skip / rdpenalty=0 / psy-rd=4.00 / psy-rdoq=10.00 / no-rd-refine / no-lossless / cbqpoffs=0 / crqpoffs=0 / rc=abr / bitrate=15000 / qcomp=0.60 / qpstep=1 / stats-write=0 / stats-read=0 / vbv-maxrate=22500 / vbv-bufsize=22500 / vbv-init=0.9 / ipratio=1.10 / pbratio=1.00 / aq-mode=0 / aq-strength=0.00 / no-cutree / zone-count=0 / no-strict-cbr / qg-size=32 / rc-grain / qpmax=69 / qpmin=0 / const-vbv / sar=1 / overscan=0 / videoformat=5 / range=0 / colorprim=1 / transfer=1 / colormatrix=1 / chromaloc=0 / display-window=0 / max-cll=0,0 / min-luma=0 / max-luma=255 / log2-max-poc-lsb=8 / vui-timing-info / vui-hrd-info / slices=1 / no-opt-qp-pps / no-opt-ref-list-length-pps / no-multi-pass-opt-rps / scenecut-bias=0.05 / no-opt-cu-delta-qp / no-aq-motion / no-hdr / no-hdr-opt / no-dhdr10-opt / no-idr-recovery-sei / analysis-reuse-level=5 / scale-factor=0 / refine-intra=0 / refine-inter=0 / refine-mv=0 / refine-ctu-distortion=0 / no-limit-sao / ctu-info=0 / no-lowpass-dct / refine-analysis-type=0 / copy-pic=1 / max-ausize-factor=1.0 / no-dynamic-refine / no-single-sei / no-hevc-aq / qp-adaptation-range=1.00
Default : Yes
Forced : No
Color range : Limited
Color primaries : BT.709
Transfer characteristics : BT.709
Matrix coefficients : BT.709

Audio
ID : 2
Format : E-AC-3 JOC
Format/Info : Enhanced AC-3 with Joint Object Coding
Commercial name : Dolby Digital Plus with Dolby Atmos
Codec ID : A_EAC3
Duration : 1 h 58 min
Bit rate mode : Constant
Bit rate : 448 kb/s
Channel(s) : 6 channels
Channel layout : L R C LFE Ls Rs
Sampling rate : 48.0 kHz
Frame rate : 31.250 FPS (1536 SPF)
Compression mode : Lossy
Stream size : 381 MiB (3%)
Language : English
Service kind : Complete Main
Default : Yes
Forced : No
Complexity index : 16
Number of dynamic objects : 15
Bed channel count : 1 channel
Bed channel configuration : LFE

Text #1
ID : 3
Format : UTF-8
Codec ID : S_TEXT/UTF8
Codec ID/Info : UTF-8 Plain Text
Title : English
Language : English
Default : No
Forced : No

Text #2
ID : 4
Format : UTF-8
Codec ID : S_TEXT/UTF8
Codec ID/Info : UTF-8 Plain Text
Title : English (SDH)
Language : English
Default : No
Forced : No


30841690091701282647_thumb.png 51298189075555937387_thumb.png 59211789634634900966_thumb.png


安娜(12.88GB)Anna.2019.INTERNAL.2160p.WEB.X265-DEFLATE
游客,如果您要查看本帖隐藏内容请回复

安娜(12.86GB)Anna.2019.INTERNAL.HDR.2160p.WEB.X265-DEFLATE
游客,如果您要查看本帖隐藏内容请回复




.

上一篇:《夏福特/新杀戮战警(台) 》4K高清下载/19.88GB/19.54GB
下一篇:《女英雄/海洛因 》4K高清下载/12.85GB
回复

使用道具 举报

0

主题

1005

帖子

2817

积分

4K家园VIP

Rank: 9Rank: 9Rank: 9

积分
2817
发表于 2019-9-10 19:14:15 | 显示全部楼层
路过
回复 支持 反对

使用道具 举报

0

主题

2

帖子

9

积分

新手上路

Rank: 1

积分
9
发表于 2019-9-10 19:18:00 | 显示全部楼层
DSFDSFDSFDSFDSDSFDSFDSFDSFDSFDSFDSFDSFDSFDSFDSFDS
回复 支持 反对

使用道具 举报

0

主题

7

帖子

80

积分

新手上路

Rank: 1

积分
80
发表于 2019-9-10 19:52:33 | 显示全部楼层

楼主太厉害了!楼主,I*老*虎*U!我觉得4K家园真是个好地方!
回复 支持 反对

使用道具 举报

1

主题

462

帖子

4527

积分

4K家园VIP

Rank: 9Rank: 9Rank: 9

积分
4527
发表于 2019-9-10 20:33:32 | 显示全部楼层

4K家园赞一个!
回复 支持 反对

使用道具 举报

0

主题

34

帖子

463

积分

新手上路

Rank: 1

积分
463
发表于 2019-9-10 21:34:07 | 显示全部楼层
4K家园赞一个!
回复 支持 反对

使用道具 举报

0

主题

6

帖子

55

积分

4K家园VIP

Rank: 9Rank: 9Rank: 9

积分
55
发表于 2019-9-10 22:34:58 | 显示全部楼层
好电影啊,赶紧下,谢谢楼主
回复 支持 反对

使用道具 举报

1

主题

78

帖子

2720

积分

注册会员

Rank: 2

积分
2720
发表于 2019-9-10 22:43:24 | 显示全部楼层

支持楼主,支持4K家园,顶一个!
回复 支持 反对

使用道具 举报

0

主题

3

帖子

12

积分

新手上路

Rank: 1

积分
12
发表于 2019-9-10 23:16:36 | 显示全部楼层
《安娜》4K高清下载/12.88GB/12.86GB
回复 支持 反对

使用道具 举报

0

主题

30

帖子

161

积分

新手上路

Rank: 1

积分
161
发表于 2019-9-10 23:16:52 | 显示全部楼层
感谢楼主分享感谢楼主分享
回复 支持 反对

使用道具 举报

您需要登录后才可以回帖 登录 | 立即注册

本版积分规则

精彩图文
关闭

站长推荐上一条 /1 下一条

Archiver|手机版|TAG|Sitemap|新帖|专题|联系我们:邮箱: 4kjia.com@gmail.com   

4k家园   ©2019