[其他] [4K] 最终幻想音乐篇混合泳林赛斯特林Final Fantasy Medley Featuring Lindsey Stirling

[复制链接]

51

主题

1450

帖子

4170

积分

4K家园VIP

Rank: 9Rank: 9Rank: 9

积分
4170
发表于 2017-11-25 09:56:19 | 显示全部楼层 |阅读模式
分类:欧美MV
大小:860MB
格式:MKV
分辨率:4K
时长:5 min 47 s

               General

Complete name : 最终幻想音乐篇混合泳林赛斯特林Final Fantasy Medley Featuring Lindsey Stirling.mkv

Format : Matroska

Format version : Version 4 / Version 2

File size : 860 MiB

Duration : 5 min 47 s

Overall bit rate : 20.8 Mb/s

Encoded date : UTC 2017-02-28 13:13:07

Writing application : mkvmerge v9.8.0 ("Kuglblids") 64bit

Writing library : libebml v1.3.4 + libmatroska v1.4.5



Video

ID : 1

Format : AVC

Format/Info : Advanced Video Codec

Format profile : <a href="/cdn-cgi/l/email-protection" class="__cf_email__" data-cfemail="5018393738101c657e61">[email&#160;protected]</a>

Format settings, CABAC : No

Format settings, ReFrames : 2 frames

Codec ID : V_MPEG4/ISO/AVC

Duration : 5 min 47 s

Bit rate : 20.7 Mb/s

Width : 3 840 pixels

Height : 2 160 pixels

Display aspect ratio : 16:9

Frame rate mode : Constant

Frame rate : 23.976 (24000/1001) FPS

Color space : YUV

Chroma subsampling : 4:2:0

Bit depth : 8 bits

Scan type : Progressive

Bits/(Pixel*Frame) : 0.104

Stream size : 855 MiB (99%)

Default : Yes

Forced : No

Color range : Limited

Color primaries : BT.709

Transfer characteristics : BT.709

Matrix coefficients : BT.709



Audio

ID : 2

Format : AAC

Format/Info : Advanced Audio Codec

Format profile : LC

Codec ID : A_AAC

Duration : 5 min 47 s

Bit rate : 126 kb/s

Channel(s) : 2 channels

Channel positions : Front: L R

Sampling rate : 44.1 kHz

Frame rate : 43.066 FPS (1024 spf)

Compression mode : Lossy

Stream size : 5.20 MiB (1%)

Default : Yes

Forced : No



Text

ID : 3

Format : UTF-8

Codec ID : S_TEXT/UTF8

Codec ID/Info : UTF-8 Plain Text

Duration : 1 min 48 s

Bit rate : 26 b/s

Count of elements : 4

Stream size : 361 Bytes (0%)

Default : Yes

Forced : No                  

上一篇:[4K]星球大战突击队员推进器滑板赛跑(请勿模仿)STORMTROOPER BOOSTED BOARD RACE
下一篇: (4K UHD)《冰雪奇缘(Frozen)》Let It Go 多语言版 Let It Go Multi-Language
回复

使用道具 举报

40

主题

1475

帖子

4221

积分

4K家园VIP

Rank: 9Rank: 9Rank: 9

积分
4221
发表于 2018-5-22 18:36:34 | 显示全部楼层
4K家园不错,希望这种资源越多越好
回复 支持 反对

使用道具 举报

49

主题

1473

帖子

4251

积分

4K家园VIP

Rank: 9Rank: 9Rank: 9

积分
4251
发表于 2018-6-13 05:35:54 | 显示全部楼层
你们要是有4K资源记得分享,别小气
回复 支持 反对

使用道具 举报

48

主题

1483

帖子

4271

积分

4K家园VIP

Rank: 9Rank: 9Rank: 9

积分
4271
发表于 2018-6-13 08:52:04 | 显示全部楼层
多发些资源啊
回复 支持 反对

使用道具 举报

40

主题

1427

帖子

4085

积分

4K家园VIP

Rank: 9Rank: 9Rank: 9

积分
4085
发表于 2018-7-9 20:37:48 | 显示全部楼层
楼主这资源不错,我收藏了
回复 支持 反对

使用道具 举报

3

主题

18

帖子

51

积分

新手上路

Rank: 1

积分
51
发表于 2018-7-18 22:41:45 | 显示全部楼层
666666666666666!!完美!!!
回复 支持 反对

使用道具 举报

2

主题

48

帖子

189

积分

新手上路

Rank: 1

积分
189
发表于 2018-7-25 15:01:39 | 显示全部楼层
我只是路过,不发表意见
回复 支持 反对

使用道具 举报

3

主题

31

帖子

88

积分

新手上路

Rank: 1

积分
88
发表于 2018-8-4 10:44:49 | 显示全部楼层
这个COS应该很不错
回复 支持 反对

使用道具 举报

2

主题

1641

帖子

4515

积分

4K家园VIP

Rank: 9Rank: 9Rank: 9

积分
4515
发表于 2018-8-13 13:27:02 | 显示全部楼层
啊啊啊啊啊啊啊啊啊啊啊
回复 支持 反对

使用道具 举报

3

主题

1265

帖子

3813

积分

4K家园VIP

Rank: 9Rank: 9Rank: 9

积分
3813
发表于 2018-8-21 02:38:14 | 显示全部楼层
是爷们的娘们的都帮顶!大力支持
回复 支持 反对

使用道具 举报

您需要登录后才可以回帖 登录 | 立即注册

本版积分规则

精彩图文
Archiver|手机版|TAG|Sitemap|新帖|专题|联系我们:邮箱: 4kjia.com@gmail.com   

4k家园   ©2019