《遇见你之前/我就要你好好的》4K高清下载/12.60GB

[复制链接]

634

主题

649

帖子

8601

积分

4K家园VIP

Rank: 9Rank: 9Rank: 9

积分
8601
 楼主| 发表于 2020-4-4 12:33:00 | 显示全部楼层 |阅读模式
d03689c8c1dd0.png

◎译  名 遇见你之前 / 我就要你好好的(台) / 温暖的遇见你
◎片  名 Me Before You
◎年  代 2016
◎产  地 英国
◎类  别 剧情 / 爱情
◎语  言 英语
◎上映日期 2016-06-03(美国)
◎IMDb评分 7.4/10 from 190909 users
◎IMDb链接 https://www.imdb.com/title/tt2674426
◎豆瓣评分 7.9/10 from 200929 users
◎豆瓣链接 https://movie.douban.com/subject/25929151/
◎片  长 110分钟
◎导  演 西娅·夏罗克 Thea Sharrock
◎编  剧 斯科特·纽斯塔德 Scott Neustadter / 迈克尔·H·韦伯 Michael H. Weber / 乔乔·莫伊斯 Jojo Moyes
◎主  演 艾米莉亚·克拉克 Emilia Clarke
      山姆·克拉弗林 Sam Claflin
      珍妮·麦克蒂尔 Janet McTeer
      查尔斯·丹斯 Charles Dance
      布兰登·柯伊尔 Brendan Coyle
      珍娜·科尔曼 Jenna Coleman
      马修·刘易斯 Matthew Lewis
      本·劳埃德-休斯 Ben Lloyd-Hughes
      凡妮莎·柯比 Vanessa Kirby
      斯蒂芬·皮科克 Stephen Peacocke
      马修·约翰·摩尔利 Matthew John Morley
      汉娜·弗林 Hannah Flynn


◎标  签 爱情 | 英国 | 浪漫 | 温情 | 文艺 | 感动 | 剧情 | 2016

◎简  介

  来自于小镇的年轻女孩小露(艾米莉亚·克拉克 Emilia Clarke 饰)应聘成为了一名看护,她所要照顾的对象,是一位名叫威尔(山姆·克拉弗林 Sam Claflin 饰)的男子。曾经的威尔家境优渥,热爱自由,喜欢到世界各地冒险,然而,一场可怕的车祸粉碎了他的脊椎,使他四肢瘫痪,这也就意味着,威尔漫长的下半生只能在轮椅上度过了。
  就这样,小露在误打误撞之中开始了和威尔的共同生活,但威尔很快就发现,小露和之前的看护们截然不同,个性大大咧咧的她从来不会对自己的伤痛避而不谈,但正是这种直面惨淡的勇气给威尔带来了不一样的感觉。在小露的陪伴下,威尔开始渐渐重新体味到了快乐的感觉,小露的坚强亦让威尔开始认真思考起自己的未来。

◎获奖情况

  第3届豆瓣电影年度榜单(2016)
  最受关注的非院线电影(提名)
  评分最高的爱情片(提名)
  7月最受关注电影(提名)
Video
ID : 1
Format : HEVC
Format/Info : High Efficiency Video Coding
Format profile : Main@L5@High
Codec ID : V_MPEGH/ISO/HEVC
Duration : 1 h 50 min
Bit rate : 15.7 Mb/s
Width : 3 840 pixels
Height : 2 160 pixels
Display aspect ratio : 16:9
Frame rate mode : Constant
Frame rate : 23.976 (24000/1001/189150) FPS
Color space : YUV
Chroma subsampling : 4:2:0
Bit depth : 8 bits
Bits/(Pixel*Frame) : 0.079
Stream size : 12.1 GiB (97%)
Language : English
Default : Yes
Forced : No
Color range : Limited
Color primaries : BT.709
Transfer characteristics : BT.709
Matrix coefficients : BT.709
Statistics Tags Issue : no_variable_data 1970-01-01 00:00:00 / no_variable_data 2010-02-22 21:41:29
FromStats_BitRate : 16028252
FromStats_Duration : 01:50:13.072000000
FromStats_FrameCount : 158555
FromStats_StreamSize : 13249498079

Audio
ID : 2
Format : E-AC-3
Format/Info : Enhanced AC-3
Commercial name : Dolby Digital Plus
Codec ID : A_EAC3
Duration : 1 h 50 min
Bit rate mode : Constant
Bit rate : 192 kb/s
Channel(s) : 6 channels
Channel layout : L R C LFE Ls Rs
Sampling rate : 48.0 kHz
Frame rate : 31.250 FPS (1536 SPF)
Compression mode : Lossy
Stream size : 151 MiB (1%)
Language : English
Service kind : Complete Main
Default : Yes
Forced : No
Statistics Tags Issue : no_variable_data 1970-01-01 00:00:00 / no_variable_data 2010-02-22 21:41:29
FromStats_BitRate : 192000
FromStats_Duration : 01:50:13.088000000
FromStats_FrameCount : 206659
FromStats_StreamSize : 158714112

Text
ID : 3
Format : UTF-8
Codec ID : S_TEXT/UTF8
Codec ID/Info : UTF-8 Plain Text
Title : English (SDH)
Language : English
Default : No
Forced : No
Statistics Tags Issue : no_variable_data 1970-01-01 00:00:00 / no_variable_data 2010-02-22 21:41:29
FromStats_BitRate : 68
FromStats_Duration : 01:45:10.350000000
FromStats_FrameCount : 1767
FromStats_StreamSize : 53746


73c1bf47d0e09.png 3879b58da97a4.png a5a961363f081.png



游客,如果您要查看本帖隐藏内容请回复



.

上一篇:《大象》4K高清下载/10.06GB
下一篇:《分秒之间》4K高清下载/9.40GB
回复

使用道具 举报

0

主题

1063

帖子

3203

积分

4K家园VIP

Rank: 9Rank: 9Rank: 9

积分
3203
发表于 2020-4-4 12:35:41 来自手机 | 显示全部楼层
正好需要啊
回复 支持 反对

使用道具 举报

2

主题

1139

帖子

3433

积分

4K家园VIP

Rank: 9Rank: 9Rank: 9

积分
3433
发表于 2020-4-4 12:35:44 | 显示全部楼层
打酱油的人拉,回复下赚取积分
回复 支持 反对

使用道具 举报

2

主题

1158

帖子

3492

积分

4K家园VIP

Rank: 9Rank: 9Rank: 9

积分
3492
发表于 2020-4-4 15:28:16 | 显示全部楼层
鄙视楼下的顶帖没我快,哈哈
回复 支持 反对

使用道具 举报

2

主题

1132

帖子

3412

积分

4K家园VIP

Rank: 9Rank: 9Rank: 9

积分
3412
发表于 2020-4-5 03:32:09 来自手机 | 显示全部楼层
哈哈,我只看看不说话
回复 支持 反对

使用道具 举报

0

主题

1421

帖子

8815

积分

金牌会员

Rank: 6Rank: 6

积分
8815
发表于 2020-4-5 06:30:35 | 显示全部楼层
谢谢分享!!
回复

使用道具 举报

0

主题

2

帖子

11

积分

新手上路

Rank: 1

积分
11
发表于 2020-4-5 07:58:53 来自手机 | 显示全部楼层
ssssssssssfffjjjj
回复 支持 反对

使用道具 举报

47

主题

1335

帖子

3815

积分

4K家园VIP

Rank: 9Rank: 9Rank: 9

积分
3815
发表于 2020-4-6 00:43:17 | 显示全部楼层
1v1飘过
回复 支持 反对

使用道具 举报

0

主题

1

帖子

10

积分

新手上路

Rank: 1

积分
10
发表于 2020-5-8 18:11:14 | 显示全部楼层
1111111
回复

使用道具 举报

0

主题

1294

帖子

6239

积分

高级会员

Rank: 3Rank: 3

积分
6239
发表于 2020-5-16 16:27:26 | 显示全部楼层
真是太棒了,辛苦了。感謝!
回复 支持 反对

使用道具 举报

您需要登录后才可以回帖 登录 | 立即注册

本版积分规则

精彩图文
Archiver|手机版|TAG|Sitemap|新帖|专题|联系我们:邮箱: 4kjia.com@gmail.com   

4k家园   ©2019