《迫降航班/机密真相 》4K高清下载/大小12.88GB

[复制链接]

635

主题

650

帖子

8615

积分

4K家园VIP

Rank: 9Rank: 9Rank: 9

积分
8615
 楼主| 发表于 2020-4-4 12:58:25 | 显示全部楼层 |阅读模式
QQ图片20200404125622.jpg

◎译  名 迫降航班 / 机密真相(港 / 台) / 航班
◎片  名 Flight
◎年  代 2012
◎产  地 美国
◎类  别 剧情 / 灾难
◎语  言 英语
◎上映日期 2012-11-02(美国)
◎IMDb评分 7.3/10 from 312914 users
◎IMDb链接 https://www.imdb.com/title/tt1907668
◎豆瓣评分 7.3/10 from 35126 users
◎豆瓣链接 https://movie.douban.com/subject/6390832/
◎片  长 138分钟
◎导  演 罗伯特·泽米吉斯 Robert Zemeckis
◎编  剧 John Gatins
◎主  演 丹泽尔·华盛顿 Denzel Washington
      詹姆斯·戴尔 James Badge Dale
      约翰·古德曼 John Goodman
      唐·钱德尔 Don Cheadle
      凯利·蕾莉 Kelly Reilly
      布鲁斯·格林伍德 Bruce Greenwood



◎简  介

  机长维普·惠特克(丹泽尔·华盛顿 Denzel Washington饰)驾驶227航班驶离奥兰多。可穿越云层时,飞机却发生了始料未及的故障。紧急中,经验老道的维普迫降到一个小教堂门口的空地上。维普奇迹般地控制住了飞机,让所有人都安全地回到了地面。事故后维普成了国家英雄。可此后美国联邦航空局对飞行事故展开了调查,发现此次事故背后的真相,居然跟维普滥用药物以及酗酒有关。是英雄还是阶下囚,维普到底能否维护住自己的英雄形象?
  本片荣获第85届奥斯卡金像奖最佳男主角和最佳原创剧本提名,以及第70届金球奖电影类-剧情类最佳男主角提名。《迫降航班》的成本仅为3100万美元,这是导演罗伯特·泽米吉斯自1978年的处女作《一亲芳泽》后成本最低的一部电影。

◎获奖情况

  第85届奥斯卡金像奖(2013)
  最佳男主角(提名) 丹泽尔·华盛顿
  最佳原创剧本(提名) 约翰·盖汀斯

  第70届金球奖(2013)
  电影类 剧情片最佳男主角(提名) 丹泽尔·华盛顿

  第22届MTV电影奖(2013)
  MTV电影奖 最目瞪口呆场面(提名) 丹泽尔·华盛顿

  第19届美国演员工会奖(2013)
  电影奖 最佳男主角(提名) 丹泽尔·华盛顿

  第18届美国评论家选择电影奖(2013)
  最佳男主角(提名) 丹泽尔·华盛顿
  最佳原创剧本(提名) 约翰·盖汀斯

  第17届金卫星奖(2012)
  电影部门 剧情片最佳男主角(提名) 丹泽尔·华盛顿
  电影部门 最佳男配角(提名) 约翰·古德曼
  电影部门 最佳原创剧本(提名) 约翰·盖汀斯
  电影部门 最佳视觉效果 Jim Gibbs / Kevin Baillie / Ryan Tudhope / 迈克尔·兰蒂里
  电影部门 最佳剪辑(提名) Jeremiah O'Driscoll
  电影部门 最佳音效(提名) 兰迪·汤姆 / 威廉·B·卡普兰 / Dennis Leonard / 丹尼斯·S·桑兹

  第11届华盛顿影评人协会奖(2012)
  最佳男主角(提名) 丹泽尔·华盛顿

  第25届芝加哥影评人协会奖(2012)
  最佳男主角(提名) 丹泽尔·华盛顿
Video
ID : 1
Format : HEVC
Format/Info : High Efficiency Video Coding
Format profile : Main@L5@High
Codec ID : V_MPEGH/ISO/HEVC
Duration : 2 h 18 min
Bit rate : 12.5 Mb/s
Width : 3 840 pixels
Height : 2 160 pixels
Display aspect ratio : 16:9
Frame rate mode : Constant
Frame rate : 23.976 (24000/1001/189150) FPS
Color space : YUV
Chroma subsampling : 4:2:0
Bit depth : 8 bits
Bits/(Pixel*Frame) : 0.063
Stream size : 12.1 GiB (95%)
Language : English
Default : Yes
Forced : No
Color range : Limited
Color primaries : BT.709
Transfer characteristics : BT.709
Matrix coefficients : BT.709
Statistics Tags Issue : no_variable_data 1970-01-01 00:00:00 / no_variable_data 2010-02-22 21:41:29
FromStats_BitRate : 12775251
FromStats_Duration : 02:18:35.357000000
FromStats_FrameCount : 199369
FromStats_StreamSize : 13278846967

Audio
ID : 2
Format : E-AC-3
Format/Info : Enhanced AC-3
Commercial name : Dolby Digital Plus
Codec ID : A_EAC3
Duration : 2 h 18 min
Bit rate mode : Constant
Bit rate : 448 kb/s
Channel(s) : 6 channels
Channel layout : L R C LFE Ls Rs
Sampling rate : 48.0 kHz
Frame rate : 31.250 FPS (1536 SPF)
Compression mode : Lossy
Stream size : 444 MiB (3%)
Language : English
Service kind : Complete Main
Default : Yes
Forced : No
Statistics Tags Issue : no_variable_data 1970-01-01 00:00:00 / no_variable_data 2010-02-22 21:41:29
FromStats_BitRate : 448000
FromStats_Duration : 02:18:35.360000000
FromStats_FrameCount : 259855
FromStats_StreamSize : 465660160

Text
ID : 3
Format : UTF-8
Codec ID : S_TEXT/UTF8
Codec ID/Info : UTF-8 Plain Text
Title : English (SDH)
Language : English
Default : No
Forced : No
Statistics Tags Issue : no_variable_data 1970-01-01 00:00:00 / no_variable_data 2010-02-22 21:41:29
FromStats_BitRate : 78
FromStats_Duration : 02:11:21.067000000
FromStats_FrameCount : 2400
FromStats_StreamSize : 76970


28465321517049630262_thumb.png 63724398868939945477_thumb.png 82729393293558835634_thumb.png


游客,如果您要查看本帖隐藏内容请回复




.

上一篇:《二分之一的魔法/魔法环游记》4K高清下载/12.25GB
下一篇:《别惹德州/辣味双拼(台)》4K高清下载/大小9.34GB
回复

使用道具 举报

0

主题

1236

帖子

3520

积分

4K家园VIP

Rank: 9Rank: 9Rank: 9

积分
3520
发表于 2020-4-4 13:00:47 | 显示全部楼层
LZ是天才,坚定完毕
回复 支持 反对

使用道具 举报

0

主题

1312

帖子

5483

积分

4K家园VIP

Rank: 9Rank: 9Rank: 9

积分
5483
发表于 2020-4-5 12:58:19 | 显示全部楼层
太好啦&萬分感謝版主的無私發佈分享%
回复 支持 反对

使用道具 举报

40

主题

1278

帖子

3596

积分

4K家园VIP

Rank: 9Rank: 9Rank: 9

积分
3596
发表于 2020-4-5 13:25:15 | 显示全部楼层
正好需要啊
回复 支持 反对

使用道具 举报

0

主题

1424

帖子

3900

积分

4K家园VIP

Rank: 9Rank: 9Rank: 9

积分
3900
发表于 2020-4-6 05:26:07 | 显示全部楼层
4K应该不错,我也下个看看
回复 支持 反对

使用道具 举报

37

主题

1266

帖子

3618

积分

4K家园VIP

Rank: 9Rank: 9Rank: 9

积分
3618
发表于 2020-4-7 03:03:18 | 显示全部楼层
多发些资源啊
回复 支持 反对

使用道具 举报

0

主题

145

帖子

1003

积分

注册会员

Rank: 2

积分
1003
发表于 2020-4-7 03:03:56 | 显示全部楼层
回复

使用道具 举报

0

主题

13

帖子

144

积分

新手上路

Rank: 1

积分
144
发表于 2020-4-7 15:02:19 | 显示全部楼层
能下载完吗?
回复 支持 反对

使用道具 举报

0

主题

959

帖子

2855

积分

4K家园VIP

Rank: 9Rank: 9Rank: 9

积分
2855
发表于 2020-4-7 17:47:24 来自手机 | 显示全部楼层
众里寻他千百度,蓦然回首在这里!
回复 支持 反对

使用道具 举报

0

主题

17

帖子

99

积分

新手上路

Rank: 1

积分
99
发表于 2020-4-19 19:21:03 | 显示全部楼层
这个好看。
回复

使用道具 举报

您需要登录后才可以回帖 登录 | 立即注册

本版积分规则

精彩图文
Archiver|手机版|TAG|Sitemap|新帖|专题|联系我们:邮箱: 4kjia.com@gmail.com   

4k家园   ©2019