[韩国MV]2020 GIRLKIND-未来(性能版本)[2160P/MP4/385MB]

[复制链接]

1994

主题

2250

帖子

1万

积分

超级版主

Rank: 8Rank: 8

积分
18066
 楼主| 发表于 2020-4-18 21:42:42 | 显示全部楼层 |阅读模式

GIRLKIND - Future (Performance Ver) 4k_20200418213129.JPG GIRLKIND - Future (Performance Ver) 4k_20200418213138.JPG GIRLKIND - Future (Performance Ver) 4k_20200418213159.JPG GIRLKIND - Future (Performance Ver) 4k_20200418213236.JPG GIRLKIND - Future (Performance Ver) 4k_20200418213240.JPG GIRLKIND - Future (Performance Ver) 4k_20200418213245.JPG

General
Complete name                  : 2020 GIRLKIND-未来(性能版本)4k.mp4
Format                         : MPEG-4
Format profile                 : Base Media
Codec ID                       : isom (isom/iso2/avc1/mp41)
File size                      : 385 MiB
Duration                       : 3 min 41 s
Overall bit rate               : 14.6 Mb/s
Writing application            : Lavf58.12.100
exvr                           : EX1.6.0(C1.0.9)

Video
ID                             : 1
Format                         : AVC
Format/Info                    : Advanced Video Codec
Format profile                 : High@L5.1
Format settings                : CABAC / 3 Ref Frames
Format settings, CABAC         : Yes
Format settings, Reference fra : 3 frames
Codec ID                       : avc1
Codec ID/Info                  : Advanced Video Coding
Duration                       : 3 min 41 s
Bit rate                       : 14.4 Mb/s
Width                          : 3 840 pixels
Height                         : 2 160 pixels
Display aspect ratio           : 16:9
Frame rate mode                : Constant
Frame rate                     : 24.000 FPS
Color space                    : YUV
Chroma subsampling             : 4:2:0
Bit depth                      : 8 bits
Scan type                      : Progressive
Bits/(Pixel*Frame)             : 0.072
Stream size                    : 380 MiB (99%)
Color range                    : Limited
Color primaries                : BT.709
Transfer characteristics       : BT.709
Matrix coefficients            : BT.709
Codec configuration box        : avcC

Audio
ID                             : 2
Format                         : AAC LC
Format/Info                    : Advanced Audio Codec Low Complexity
Codec ID                       : mp4a-40-2
Duration                       : 3 min 41 s
Bit rate mode                  : Constant
Bit rate                       : 192 kb/s
Channel(s)                     : 2 channels
Channel layout                 : L R
Sampling rate                  : 48.0 kHz
Frame rate                     : 46.875 FPS (1024 SPF)
Compression mode               : Lossy
Stream size                    : 5.07 MiB (1%)
Default                        : Yes
Alternate group                : 1


GIRLKIND-未来(性能版本)4k.mp4.jpg


网盘下载失效不补:链接: https://pan.baidu.com/s/1qaIIMP7YGWglDScnhCqQZg 提取码:
****此区域为收费内容****    需支付 30 金币后可查看立即购买




.

上一篇:谁有这个的4k版?
下一篇:[韩国MV] 2020(G)I-DLE —“哦,天哪” [2160P/MP4/328MB]
回复

使用道具 举报

1

主题

1195

帖子

3433

积分

4K家园VIP

Rank: 9Rank: 9Rank: 9

积分
3433
发表于 2020-4-18 21:42:47 来自手机 | 显示全部楼层
楼猪V5啊
回复 支持 反对

使用道具 举报

1

主题

1087

帖子

3277

积分

4K家园VIP

Rank: 9Rank: 9Rank: 9

积分
3277
发表于 2020-4-18 21:42:47 | 显示全部楼层
都不知道说的啥
回复 支持 反对

使用道具 举报

1

主题

1174

帖子

3340

积分

4K家园VIP

Rank: 9Rank: 9Rank: 9

积分
3340
发表于 2020-4-18 21:42:47 | 显示全部楼层
非常好,顶一下
回复 支持 反对

使用道具 举报

0

主题

994

帖子

2994

积分

4K家园VIP

Rank: 9Rank: 9Rank: 9

积分
2994
发表于 2020-4-18 22:43:36 | 显示全部楼层
众里寻他千百度,蓦然回首在这里!
回复 支持 反对

使用道具 举报

头像被屏蔽

0

主题

71

帖子

120

积分

禁止访问

积分
120
发表于 2020-4-19 02:49:22 | 显示全部楼层
提示: 作者被禁止或删除 内容自动屏蔽
签名被屏蔽
回复

使用道具 举报

0

主题

959

帖子

2855

积分

4K家园VIP

Rank: 9Rank: 9Rank: 9

积分
2855
发表于 2020-4-19 16:41:34 | 显示全部楼层
前排顶,很好!
回复 支持 反对

使用道具 举报

您需要登录后才可以回帖 登录 | 立即注册

本版积分规则

精彩图文
Archiver|手机版|TAG|Sitemap|新帖|专题|联系我们:邮箱: 4kjia.com@gmail.com   

4k家园   ©2019