[西亚]阴影(眼影Play)对视 4k [2160P/MP4/345MB]

[复制链接]

1935

主题

2183

帖子

1万

积分

超级版主

Rank: 8Rank: 8

积分
17319
 楼主| 发表于 2020-7-27 20:32:16 | 显示全部楼层 |阅读模式
[西亚]阴影(眼影Play)对视 4k_20200727202759.JPG [西亚]阴影(眼影Play)对视 4k_20200727202820.JPG [西亚]阴影(眼影Play)对视 4k_20200727202829.JPG [西亚]阴影(眼影Play)对视 4k_20200727202853.JPG

General
Complete name                  : [西亚]阴影(眼影Play)对视 4k.mp4
Format                         : MPEG-4
Format profile                 : Base Media
Codec ID                       : isom (isom/iso2/avc1/mp41)
File size                      : 346 MiB
Duration                       : 3 min 18 s
Overall bit rate               : 14.6 Mb/s
Writing application            : Lavf58.12.100
exvr                           : EX1.8.2(C1.0.9)

Video
ID                             : 1
Format                         : AVC
Format/Info                    : Advanced Video Codec
Format profile                 : High@L5.1
Format settings                : CABAC / 4 Ref Frames
Format settings, CABAC         : Yes
Format settings, Reference fra : 4 frames
Codec ID                       : avc1
Codec ID/Info                  : Advanced Video Coding
Duration                       : 3 min 18 s
Bit rate                       : 14.4 Mb/s
Width                          : 3 840 pixels
Height                         : 2 160 pixels
Display aspect ratio           : 16:9
Frame rate mode                : Constant
Frame rate                     : 23.976 (23976/1000) FPS
Color space                    : YUV
Chroma subsampling             : 4:2:0
Bit depth                      : 8 bits
Scan type                      : Progressive
Bits/(Pixel*Frame)             : 0.072
Stream size                    : 341 MiB (99%)
Color range                    : Limited
Color primaries                : BT.709
Transfer characteristics       : BT.709
Matrix coefficients            : BT.709
Codec configuration box        : avcC

Audio
ID                             : 2
Format                         : AAC LC
Format/Info                    : Advanced Audio Codec Low Complexity
Codec ID                       : mp4a-40-2
Duration                       : 3 min 18 s
Bit rate mode                  : Constant
Bit rate                       : 192 kb/s
Channel(s)                     : 2 channels
Channel layout                 : L R
Sampling rate                  : 44.1 kHz
Frame rate                     : 43.066 FPS (1024 SPF)
Compression mode               : Lossy
Stream size                    : 4.55 MiB (1%)
Default                        : Yes
Alternate group                : 1



网盘下载失效不补:链接: https://pan.baidu.com/s/1r9rajIbaMoHxomE_7ZOLIg 提取码:
游客,如果您要查看本帖隐藏内容请回复
****此区域为收费内容****    需支付 15 金币后可查看立即购买



.



上一篇:自然-(女孩) [2160P/MP4/428MB]
下一篇:2020 KANGDANIEL - 波浪(Feat. SIMON DOMINIC, JAMIE) [2160P/MP4/400MB]
回复

使用道具 举报

38

主题

1270

帖子

3614

积分

4K家园VIP

Rank: 9Rank: 9Rank: 9

积分
3614
发表于 2020-7-27 20:32:22 | 显示全部楼层
我擦!我要沙发!
回复 支持 反对

使用道具 举报

0

主题

129

帖子

3045

积分

中级会员

Rank: 4

积分
3045
发表于 2020-7-28 08:49:34 | 显示全部楼层
楼主发贴辛苦了,谢谢楼主分享!我觉得来4K家园是注册对了!
回复 支持 反对

使用道具 举报

0

主题

31

帖子

4134

积分

中级会员

Rank: 4

积分
4134
发表于 2020-7-28 13:21:21 | 显示全部楼层
谢谢分享
回复

使用道具 举报

1

主题

1067

帖子

3223

积分

4K家园VIP

Rank: 9Rank: 9Rank: 9

积分
3223
发表于 2020-7-28 21:14:01 | 显示全部楼层
呵呵。。。
回复 支持 反对

使用道具 举报

0

主题

4

帖子

25

积分

新手上路

Rank: 1

积分
25
发表于 2020-7-28 23:22:40 | 显示全部楼层
6666666666
回复 支持 反对

使用道具 举报

49

主题

1254

帖子

3662

积分

4K家园VIP

Rank: 9Rank: 9Rank: 9

积分
3662
发表于 2020-7-29 11:15:49 来自手机 | 显示全部楼层
感谢楼主发帖,前排顶起
回复 支持 反对

使用道具 举报

0

主题

1333

帖子

3599

积分

4K家园VIP

Rank: 9Rank: 9Rank: 9

积分
3599
发表于 2020-7-29 23:13:44 | 显示全部楼层
好帖必须得顶起
回复 支持 反对

使用道具 举报

0

主题

1169

帖子

3339

积分

中级会员

Rank: 4

积分
3339
发表于 5 天前 | 显示全部楼层
我了个去,顶了
回复 支持 反对

使用道具 举报

0

主题

3

帖子

16

积分

新手上路

Rank: 1

积分
16
发表于 5 天前 | 显示全部楼层
hhh 好q漂亮啊
回复 支持 反对

使用道具 举报

您需要登录后才可以回帖 登录 | 立即注册

本版积分规则

精彩图文
Archiver|手机版|TAG|Sitemap|新帖|专题|联系我们:邮箱: 4kjia.com@gmail.com   

4k家园   ©2019